请选择 进入手机版 | 继续访问电脑版

磁力吧

 找回密码
 立即注册

乔 Joe.1970.1080p.BluRay.x264-HANDJOB 8.84GB

[复制链接]

磁力吧 发表于 2019-7-14 11:37:47 | 显示全部楼层 |阅读模式



帖子完整标题:乔 Joe.1970.1080p.BluRay.x264-HANDJOB 8.84GB




◎译  名 乔 / The Gap
◎片  名 Joe
◎年  代 1969
◎产  地 美国
◎类  别 剧情
◎语  言 英语
◎上映日期 1970-07-15
◎IMDb评分  6.8/10 from 2524 users
◎片  长 107 分钟
◎导  演 约翰·G·艾维尔森 John G. Avildsen
◎编  剧 诺曼·韦克斯勒 Norman Wexler
◎主  演 彼得·博伊尔 Peter Boyle
      Dennis Patrick
      苏珊·萨兰登 Susan Sarandon
      K·卡兰 K Callan


◎标  签 SusanSarandon | 剧情 | 美国电影 | 美国 | 奥斯卡最佳原创剧本 | JohnG.Avildsen | 苏珊·萨兰登 | 未下载

◎简  介  

  Bill, a wealthy businessman, confronts his junkie daughter's drug-dealing boyfriend; in the ensuing argument, Bill kills him. Panic-stricken, he wanders the streets and eventually stops at a bar. There he runs into a drunken factory worker named Joe, who hates hippies, blacks, and anyone who is "different", and would like to kill one himself. The two start talking, and Bill reveals his secret to Joe. Complications ensue.

◎获奖情况  

  第43届奥斯卡金像奖(1971)
  最佳原创剧本(提名) 诺曼·韦克斯勒


Video
ID                                       : 4
Format                                   : AVC
Format/Info                              : Advanced Video Codec
Format settings                          : CABAC / 4 Ref Frames
Format settings, CABAC                   : Yes
Format settings, ReFrames                : 4 frames
Codec ID                                 : V_MPEG4/ISO/AVC
Duration                                 : 1 h 47 min
Bit rate                                 : 11.4 Mb/s
Width                                    : 1 920 pixels
Height                                   : 1 036 pixels
Display aspect ratio                     : 1.85:1
Frame rate mode                          : Constant
Frame rate                               : 23.976 (24000/1001) FPS
Color space                              : YUV
Chroma subsampling                       : 4:2:0
Bit depth                                : 8 bits
Scan type                                : Progressive
Bits/(Pixel*Frame)                       : 0.240
Stream size                              : 8.55 GiB (97%)
Writing library                          : x264 core 157 r2935 545de2f
Encoding settings                        : cabac=1 / ref=4 / deblock=1:-3:-3 / analyse=0x3:0x133 / me=umh / subme=10 / psy=1 / psy_rd=1.00:0.00 / mixed_ref=1 / me_range=32 / chroma_me=1 / trellis=2 / 8x8dct=1 / cqm=0 / deadzone=21,11 / fast_pskip=0 / chroma_qp_offset=-2 / threads=18 / lookahead_threads=4 / sliced_threads=0 / nr=0 / decimate=0 / interlaced=0 / bluray_compat=0 / constrained_intra=0 / bframes=16 / b_pyramid=2 / b_adapt=2 / b_bias=0 / direct=3 / weightb=1 / open_gop=0 / weightp=2 / keyint=240 / keyint_min=24 / scenecut=40 / intra_refresh=0 / rc_lookahead=60 / rc=crf / mbtree=0 / crf=19.2 / qcomp=0.60 / qpmin=0 / qpmax=69 / qpstep=4 / vbv_maxrate=62500 / vbv_bufsize=78125 / crf_max=0.0 / nal_hrd=none / filler=0 / ip_ratio=1.40 / pb_ratio=1.30 / aq=2:1.00
Default                                  : Yes
Forced                                   : No
Color range                              : Limited
Color primaries                          : BT.709
Transfer characteristics                 : BT.709
Matrix coefficients                      : BT.709

Audio
ID                                       : 1
Format                                   : FLAC
Format/Info                              : Free Lossless Audio Codec
Codec ID                                 : A_FLAC
Duration                                 : 1 h 47 min
Bit rate mode                            : Variable
Bit rate                                 : 327 kb/s
Channel(s)                               : 2 channels
Channel layout                           : L R
Sampling rate                            : 48.0 kHz
Frame rate                               : 11.719 FPS (4096 SPF)
Bit depth                                : 16 bits
Compression mode                         : Lossless
Stream size                              : 251 MiB (3%)
Writing library                          : libFLAC 1.2.1 (UTC 2007-09-17)
Language                                 : English
Default                                  : Yes
Forced                                   : No

Text #1
ID                                       : 2
Format                                   : UTF-8
Codec ID                                 : S_TEXT/UTF8
Codec ID/Info                            : UTF-8 Plain Text
Duration                                 : 1 h 40 min
Bit rate                                 : 55 b/s
Count of elements                        : 1373
Stream size                              : 41.1 KiB (0%)
Language                                 : English
Default                                  : No
Forced                                   : No

Text #2
ID                                       : 3
Format                                   : PGS
Muxing mode                              : zlib
Codec ID                                 : S_HDMV/PGS
Codec ID/Info                            : Picture based subtitle format used on BDs/HD-DVDs
Duration                                 : 1 h 46 min
Bit rate                                 : 75.7 kb/s
Count of elements                        : 3322
Stream size                              : 57.6 MiB (1%)
Title                                    : SDH
Language                                 : English
Default                                  : No
Forced                                   : No



                                                                                                                                                                                                        
                                                                                                                                                                                                                                                                                                                                                                                                                                                                                                                                                                                                                                                                                                                                                                                                                                                        
e8913980d214d7c35d8289973439bd00.torrent (44.69 KB)

回复

使用道具 举报

您需要登录后才可以回帖 登录 | 立即注册

本版积分规则

磁力链接吧  |网站地图

本网站所有资源来自网络,如无意中侵犯了您的权益,请发邮件至 804136696@qq.com,立即清除相关链接

GMT+8, 2019-8-19 14:30 , Processed in 0.092914 second(s), 37 queries .

Powered by Discuz! X3.2

© 2001-2013 Comsenz Inc.

快速回复 返回顶部 返回列表