请选择 进入手机版 | 继续访问电脑版

磁力吧

 找回密码
 立即注册

活尸归来 It.Lives.Again.1978.1080p.BluRay.x264-PSYCHD 8.75GB

[复制链接]

磁力链接 发表于 2019-7-13 11:36:19 | 显示全部楼层 |阅读模式




帖子完整标题:活尸归来 It.Lives.Again.1978.1080p.BluRay.x264-PSYCHD 8.75GB




◎译  名 活尸归来
◎片  名 It Lives Again
◎年  代 1978
◎产  地 美国
◎类  别 恐怖
◎语  言 英语
◎上映日期 1978-05-10
◎IMDb评分  5.2/10 from 1861 users
◎片  长 91 分钟
◎导  演 拉里·柯恩 Larry Cohen
◎编  剧 Larry Cohen
◎主  演 弗雷德里克·福瑞斯特 Frederic Forrest
      Kathleen Lloyd
      约翰·P.瑞安 John P. Ryan
      约翰·马利 John Marley
      安德鲁·杜甘 Andrew Duggan


◎标  签 恐怖 | 美国 | 美国电影 | 悬疑 | 恐怖电影 | 卡特 | cult | CULT

◎简  介  

  当尤金夫妇正在为有自己将要出生的孩子庆祝的时候,一个陌生人闯入了他们的派对,说他们的孩子是不正常的,是那个“它是活尸”的婴儿,面对这一切他们该怎么办,该何去何从,该相信还是不相信……
Video
ID                                       : 1
Format                                   : AVC
Format/Info                              : Advanced Video Codec
Format settings                          : CABAC / 4 Ref Frames
Format settings, CABAC                   : Yes
Format settings, RefFrames               : 4 frames
Codec ID                                 : V_MPEG4/ISO/AVC
Duration                                 : 1 h 30 min
Bit rate                                 : 12.3 Mb/s
Width                                    : 1 920 pixels
Height                                   : 1 040 pixels
Display aspect ratio                     : 1.85:1
Frame rate mode                          : Constant
Frame rate                               : 23.976 (24000/1001) FPS
Color space                              : YUV
Chroma subsampling                       : 4:2:0
Bit depth                                : 8 bits
Scan type                                : Progressive
Bits/(Pixel*Frame)                       : 0.257
Stream size                              : 7.62 GiB (87%)
Writing library                          : x264 core 155 r2901 7d0ff22
Encoding settings                        : cabac=1 / ref=4 / deblock=1:-3:-3 / analyse=0x3:0x113 / me=umh / subme=8 / psy=1 / psy_rd=1.10:0.00 / mixed_ref=1 / me_range=32 / chroma_me=1 / trellis=2 / 8x8dct=1 / cqm=0 / deadzone=21,11 / fast_pskip=1 / chroma_qp_offset=-2 / threads=32 / lookahead_threads=5 / sliced_threads=0 / nr=0 / decimate=1 / interlaced=0 / bluray_compat=0 / constrained_intra=0 / bframes=3 / b_pyramid=2 / b_adapt=2 / b_bias=0 / direct=3 / weightb=1 / open_gop=0 / weightp=2 / keyint=240 / keyint_min=24 / scenecut=40 / intra_refresh=0 / rc_lookahead=50 / rc=2pass / mbtree=1 / bitrate=12290 / ratetol=1.0 / qcomp=0.60 / qpmin=0 / qpmax=69 / qpstep=4 / cplxblur=20.0 / qblur=0.5 / ip_ratio=1.40 / aq=3:0.75
Default                                  : Yes
Forced                                   : No
Statistics Tags Issue                    : no_variable_data 1970-01-01 00:00:00 / no_variable_data 2010-02-22 21:41:29
FromStats_BitRate                        : 12290805
FromStats_Duration                       : 01:30:42.854000000
FromStats_FrameCount                     : 130498
FromStats_StreamSize                     : 8362132735

Audio
ID                                       : 2
Format                                   : DTS
Format/Info                              : Digital Theater Systems
Mode                                     : 16
Format settings, Endianness              : Big
Codec ID                                 : A_DTS
Duration                                 : 1 h 30 min
Bit rate mode                            : Constant
Bit rate                                 : 1 509 kb/s
Channel(s)                               : 2 channels
Channel positions                        : Front: L R
Sampling rate                            : 48.0 kHz
Frame rate                               : 93.750 FPS (512 SPF)
Bit depth                                : 24 bits
Compression mode                         : Lossy
Stream size                              : 979 MiB (11%)
Language                                 : English
Default                                  : Yes
Forced                                   : No
Statistics Tags Issue                    : no_variable_data 1970-01-01 00:00:00 / no_variable_data 2010-02-22 21:41:29
FromStats_BitRate                        : 1509000
FromStats_Duration                       : 01:30:42.880000000
FromStats_FrameCount                     : 510270
FromStats_StreamSize                     : 1026663240

Text #1
ID                                       : 3
Format                                   : UTF-8
Codec ID                                 : S_TEXT/UTF8
Codec ID/Info                            : UTF-8 Plain Text
Language                                 : English
Default                                  : No
Forced                                   : No
Statistics Tags Issue                    : no_variable_data 1970-01-01 00:00:00 / no_variable_data 2010-02-22 21:41:29
FromStats_BitRate                        : 60
FromStats_Duration                       : 01:27:53.393000000
FromStats_FrameCount                     : 1231
FromStats_StreamSize                     : 39624

Text #2
ID                                       : 4
Format                                   : UTF-8
Codec ID                                 : S_TEXT/UTF8
Codec ID/Info                            : UTF-8 Plain Text
Title                                    : SDH
Language                                 : English
Default                                  : No
Forced                                   : No
Statistics Tags Issue                    : no_variable_data 1970-01-01 00:00:00 / no_variable_data 2010-02-22 21:41:29
FromStats_BitRate                        : 66
FromStats_Duration                       : 01:30:05.191000000
FromStats_FrameCount                     : 1440
FromStats_StreamSize                     : 45088

Menu
00:00:00.000                             : en:00:00:00.000
00:04:40.989                             : en:00:04:40.989
00:14:28.618                             : en:00:14:28.618
00:22:59.545                             : en:00:22:59.545
00:30:21.528                             : en:00:30:21.528
00:37:09.018                             : en:00:37:09.018
00:45:32.271                             : en:00:45:32.271
00:53:18.737                             : en:00:53:18.737
01:03:05.281                             : en:01:03:05.281
01:10:37.358                             : en:01:10:37.358
01:18:50.434                             : en:01:18:50.434
01:25:28.290                             : en:01:25:28.290



                                                                                                                                                                                                        
                                                                                                                                                                                                                                                                                                                                                                                                                                                                                                                                                                                                                                                                                                                                                                                                                                                        
3aa37ffcf927635fec28c5da23059e2f.torrent (88.3 KB)

回复

使用道具 举报

您需要登录后才可以回帖 登录 | 立即注册

本版积分规则

磁力链接吧  |网站地图

本网站所有资源来自网络,如无意中侵犯了您的权益,请发邮件至 804136696@qq.com,立即清除相关链接

GMT+8, 2019-8-19 13:25 , Processed in 0.097685 second(s), 29 queries .

Powered by Discuz! X3.2

© 2001-2013 Comsenz Inc.

快速回复 返回顶部 返回列表