请选择 进入手机版 | 继续访问电脑版

磁力吧

 找回密码
 立即注册

坚信礼/坚振礼 The.Confirmation.2016.1080p.BluRay.x264-ROVERS 7.66GB

[复制链接]

磁力链接 发表于 2019-7-10 11:12:13 | 显示全部楼层 |阅读模式




帖子完整标题:坚信礼/坚振礼 The.Confirmation.2016.1080p.BluRay.x264-ROVERS 7.66GB




◎译  名 坚信礼 / 坚振礼 / 欢闹父子情 / 确认
◎片  名 The Confirmation
◎年  代 2016
◎产  地 加拿大
◎类  别 喜剧 / 家庭
◎语  言 英语
◎上映日期 2016-03-18(美国)
◎IMDb评分  6.4/10 from 5509 users
◎片  长 101分钟
◎导  演 鲍勃·尼尔森 Bob Nelson
◎编  剧 鲍勃·尼尔森 Bob Nelson
◎主  演 克里夫·欧文 Clive Owen
      杰顿·李博赫 Jaeden Lieberher
      玛丽亚·贝罗 Maria Bello
      帕顿·奥斯瓦尔特 Patton Oswalt
      斯蒂芬·托布罗斯基 Stephen Tobolowsky
      斯宾塞·德雷弗 Spencer Drever
      迈克尔·艾克朗德 Michael Eklund
      瑞安·罗宾斯 Ryan Robbins
      马修·莫迪恩 Matthew Modine
      罗伯特·福斯特 Robert Forster
      蒂姆·布雷克·尼尔森 Tim Blake Nelson
      帕特里克·吉尔莫 Patrick Gilmore
      格伦·贝克 Glenn Beck


◎标  签 家庭 | 父子 | 温情 | 加拿大 | 剧情 | 成长 | 喜剧 | 2016

◎简  介  

  由于妈妈与她的新一任丈夫要完成天主教的仪式八岁的安东尼与他酗酒的父亲一起度过的一个不易的周末,不幸父亲的房子被房东锁住,工具箱也被窃取,父子二人互相配合寻找解决问题的方法,这令沃特成为了一个更好的父亲,同时预示着安东尼将来也会成为一个正直的人。
Video
ID                                       : 1
Format                                   : AVC
Format/Info                              : Advanced Video Codec
Format settings, CABAC                   : Yes
Format settings, ReFrames                : 4 frames
Codec ID                                 : V_MPEG4/ISO/AVC
Duration                                 : 1h 41mn
Bit rate                                 : 9 302 Kbps
Width                                    : 1 920 pixels
Height                                   : 1 040 pixels
Display aspect ratio                     : 1.85:1
Frame rate mode                          : Constant
Frame rate                               : 23.976 fps
Color space                              : YUV
Chroma subsampling                       : 4:2:0
Bit depth                                : 8 bits
Scan type                                : Progressive
Bits/(Pixel*Frame)                       : 0.194
Stream size                              : 6.58 GiB (86%)
Writing library                          : x264 core 148 r2692 64f4e24
Encoding settings                        : cabac=1 / ref=4 / deblock=1:0:0 / analyse=0x3:0x133 / me=umh / subme=7 / psy=1 / psy_rd=1.00:0.00 / mixed_ref=1 / me_range=16 / chroma_me=1 / trellis=1 / 8x8dct=1 / cqm=0 / deadzone=21,11 / fast_pskip=0 / chroma_qp_offset=-2 / threads=12 / lookahead_threads=2 / sliced_threads=0 / nr=0 / decimate=1 / interlaced=0 / bluray_compat=0 / constrained_intra=0 / bframes=3 / b_pyramid=2 / b_adapt=1 / b_bias=0 / direct=1 / weightb=1 / open_gop=0 / weightp=2 / keyint=250 / keyint_min=23 / scenecut=40 / intra_refresh=0 / rc_lookahead=40 / rc=2pass / mbtree=1 / bitrate=9302 / ratetol=1.0 / qcomp=0.60 / qpmin=0 / qpmax=69 / qpstep=4 / cplxblur=20.0 / qblur=0.5 / ip_ratio=1.40 / aq=1:1.00
Language                                 : English
Default                                  : Yes
Forced                                   : No

Audio
ID                                       : 2
Format                                   : DTS
Format/Info                              : Digital Theater Systems
Mode                                     : 16
Format settings, Endianness              : Big
Codec ID                                 : A_DTS
Duration                                 : 1h 41mn
Bit rate mode                            : Constant
Bit rate                                 : 1 509 Kbps
Channel(s)                               : 6 channels
Channel positions                        : Front: L C R, Side: L R, LFE
Sampling rate                            : 48.0 KHz
Frame rate                               : 93.750 fps (512 spf)
Bit depth                                : 24 bits
Compression mode                         : Lossy
Stream size                              : 1.07 GiB (14%)
Language                                 : English
Default                                  : Yes
Forced                                   : No

Menu
00:00:00.000                             : en:00:00:00.000
00:06:21.464                             : en:00:06:21.464
00:12:22.325                             : en:00:12:22.325
00:19:19.200                             : en:00:19:19.200
00:24:53.492                             : en:00:24:53.492
00:32:33.159                             : en:00:32:33.159
00:40:23.880                             : en:00:40:23.880
00:45:09.457                             : en:00:45:09.457
00:52:24.141                             : en:00:52:24.141
00:58:12.030                             : en:00:58:12.030
01:04:48.885                             : en:01:04:48.885
01:11:06.512                             : en:01:11:06.512
01:19:20.672                             : en:01:19:20.672
01:24:22.349                             : en:01:24:22.349
01:31:32.320                             : en:01:31:32.320
01:36:48.052                             : en:01:36:48.052



                                                                                                                                                                                                        
                                                                                                                                                                                                                                                                                                                                                                                                                                                                                                                                                                                                                                                                                                                                                                                                                                                        
d74893d0f555661717b716e1420babd2.torrent (77.47 KB)

回复

使用道具 举报

您需要登录后才可以回帖 登录 | 立即注册

本版积分规则

磁力链接吧  |网站地图

本网站所有资源来自网络,如无意中侵犯了您的权益,请发邮件至 804136696@qq.com,立即清除相关链接

GMT+8, 2019-8-22 21:28 , Processed in 0.085060 second(s), 29 queries .

Powered by Discuz! X3.2

© 2001-2013 Comsenz Inc.

快速回复 返回顶部 返回列表