请选择 进入手机版 | 继续访问电脑版

磁力吧

 找回密码
 立即注册

狂喜 Rapture.1979.720p.BluRay.x264-USURY 5.47GB

[复制链接]

磁力链接 发表于 2019-7-10 11:02:01 | 显示全部楼层 |阅读模式



帖子完整标题:狂喜 Rapture.1979.720p.BluRay.x264-USURY 5.47GB




◎译  名 狂喜 / Arrebato / Rapture
◎片  名 Arrebato
◎年  代 1979
◎产  地 西班牙
◎类  别 剧情 / 恐怖
◎语  言 西班牙语
◎上映日期 1979(西班牙)
◎IMDb评分  7.2/10 from 1811 users
◎导  演 Iván Zulueta
◎编  剧 Iván Zulueta
◎主  演 Eusebio Poncela
      Cecilia Roth
      Will More


◎标  签 西班牙 | 超现实 | cult | 西班牙电影 | 超现实主义 | IvanZulueta | 1980s | 1980

◎简  介  

  Jose is a filmmaker putting the finishing touches on his latest production, a schlocky vampire picture. Feeling supremely dissatisfied with his vocation and heroin addicted girlfriend Ana, he arrives back at his apartment to discover a package from his friend Pedro. It contains a reel of super 8mm film, an audiotape and a key to Pedro’s apartment.
Flashbacks show how these two men, both of whom share an extraordinary passion for filmmaking, met at Pedro’s family home where Jose was location scouting. Pedro, who’s never without his super 8mm camera, believes life is only worth anything if it’s caught on film. Furthermore, he’s tapped a hidden power inherent in film images that causes him to experience a mystical state of “Arrebato,” or rapture. Before long Pedro becomes addicted to this sensation, eventually cutting himself off from the outside world and devoting his life to filming himself in bed. His camera in turn grows increasingly powerful as it saps more and more of Pedro’s life force, eventually developing the capacity to turn itself on and off and, more alarmingly, literally erase objects—and, inevitably, people—from existence.
All this is evident on the film and tape Pedro has mailed to Jose, who in the end decides to visit his friend’s apartment. He arrives to find Pedro’s camera set up and running, but its owner nowhere to be found...
Video
ID                                       : 1
Format                                   : AVC
Format/Info                              : Advanced Video Codec
Format settings                          : CABAC / 5 Ref Frames
Format settings, CABAC                   : Yes
Format settings, ReFrames                : 5 frames
Codec ID                                 : V_MPEG4/ISO/AVC
Duration                                 : 1 h 54 min
Bit rate                                 : 5 331 kb/s
Width                                    : 1 168 pixels
Height                                   : 720 pixels
Display aspect ratio                     : 16:10
Frame rate mode                          : Constant
Frame rate                               : 24.000 FPS
Color space                              : YUV
Chroma subsampling                       : 4:2:0
Bit depth                                : 8 bits
Scan type                                : Progressive
Bits/(Pixel*Frame)                       : 0.264
Stream size                              : 4.26 GiB (78%)
Writing library                          : x264 core 157 r2969 d4099dd
Encoding settings                        : cabac=1 / ref=5 / deblock=1:-3:-3 / analyse=0x3:0x133 / me=umh / subme=9 / psy=1 / psy_rd=1.00:0.00 / mixed_ref=1 / me_range=16 / chroma_me=1 / trellis=2 / 8x8dct=1 / cqm=0 / deadzone=21,11 / fast_pskip=0 / chroma_qp_offset=-2 / threads=18 / lookahead_threads=1 / sliced_threads=0 / nr=0 / decimate=1 / interlaced=0 / bluray_compat=0 / constrained_intra=0 / bframes=3 / b_pyramid=2 / b_adapt=1 / b_bias=0 / direct=3 / weightb=1 / open_gop=0 / weightp=2 / keyint=240 / keyint_min=24 / scenecut=40 / intra_refresh=0 / rc_lookahead=50 / rc=2pass / mbtree=1 / bitrate=5331 / ratetol=1.0 / qcomp=0.60 / qpmin=0 / qpmax=69 / qpstep=4 / cplxblur=20.0 / qblur=0.5 / ip_ratio=1.40 / aq=1:1.00
Language                                 : English
Default                                  : Yes
Forced                                   : No

Audio
ID                                       : 2
Format                                   : DTS
Format/Info                              : Digital Theater Systems
Codec ID                                 : A_DTS
Duration                                 : 1 h 54 min
Bit rate mode                            : Constant
Bit rate                                 : 1 509 kb/s
Channel(s)                               : 2 channels
Channel layout                           : L R
Sampling rate                            : 48.0 kHz
Frame rate                               : 93.750 FPS (512 SPF)
Bit depth                                : 24 bits
Compression mode                         : Lossy
Stream size                              : 1.21 GiB (22%)
Language                                 : Spanish
Default                                  : Yes
Forced                                   : No

Text
ID                                       : 3
Format                                   : UTF-8
Codec ID                                 : S_TEXT/UTF8
Codec ID/Info                            : UTF-8 Plain Text
Duration                                 : 1 h 48 min
Bit rate                                 : 48 b/s
Count of elements                        : 848
Stream size                              : 38.7 KiB (0%)
Title                                    : English
Language                                 : English
Default                                  : Yes
Forced                                   : Yes

Menu
00:00:00.000                             : en:00:00:00.000
00:13:20.000                             : en:00:13:20.000
00:27:12.000                             : en:00:27:12.000
00:42:18.625                             : en:00:42:18.625
00:55:38.625                             : en:00:55:38.625
01:06:40.000                             : en:01:06:40.000
01:18:24.000                             : en:01:18:24.000
01:29:36.000                             : en:01:29:36.000
01:40:26.625                             : en:01:40:26.625
01:47:22.625                             : en:01:47:22.625



                                                                                                                                                                                                        
                                                                                                                                                                                                                                                                                                                                                                                                                                                                                                                                                                                                                                                                                                                                                                                                                                                        
bfc992a045e01c528b6fb58a1acc3ac7.torrent (28.13 KB)

回复

使用道具 举报

您需要登录后才可以回帖 登录 | 立即注册

本版积分规则

磁力链接吧  |网站地图

本网站所有资源来自网络,如无意中侵犯了您的权益,请发邮件至 804136696@qq.com,立即清除相关链接

GMT+8, 2019-8-19 13:44 , Processed in 0.094944 second(s), 29 queries .

Powered by Discuz! X3.2

© 2001-2013 Comsenz Inc.

快速回复 返回顶部 返回列表