请选择 进入手机版 | 继续访问电脑版

磁力吧

 找回密码
 立即注册

米亚的父亲/米娅的父亲 Secret.At.Arrow.Lake.2009.1080p.BluRay.x264.D...

[复制链接]

磁力链接 发表于 2019-7-9 23:10:31 | 显示全部楼层 |阅读模式




帖子完整标题:米亚的父亲/米娅的父亲 Secret.At.Arrow.Lake.2009.1080p.BluRay.x264.DTS-FGT 7.59GB




◎译  名 米亚的父亲 / 米娅的父亲
◎片  名 Mia's Father
◎年  代 2009
◎产  地 美国
◎类  别 剧情
◎语  言 英语
◎导  演 Brad Keller
◎编  剧 Bonnie Orr
◎主  演 C. Thomas Howell
      Dedee Pfeiffer
      Jay Johnston


◎标  签 美国 | ? | 温情 | 欧美电影 | 2015 | 2009

◎简  介  

  米娅得知他的父亲在海湾战争中死亡,但她相信他的死亡有其它的原因。
Mia Williams, raised on the family Bed & Breakfast by Sara, a loving single mom grows up believing her father was lost, M.I.A., in the Gulf War. A tragic accident results in the sudden death of Sara and Mia finds herself alone to care for the B&B while attending college. Daniel Williams, a hard-edged businessman from New York, arrives at the B&B and Mia suspects he may be her lost father. The townsfolk believe he may be responsible for Sara's death. As events unfold, Daniel clears his name and finds acceptance from the community and Mia finds a father at last.
Video
ID                                       : 1
Format                                   : AVC
Format/Info                              : Advanced Video Codec
Format settings                          : CABAC / 4 Ref Frames
Format settings, CABAC                   : Yes
Format settings, ReFrames                : 4 frames
Codec ID                                 : V_MPEG4/ISO/AVC
Duration                                 : 1 h 23 min
Bit rate                                 : 11.5 Mb/s
Width                                    : 1 918 pixels
Height                                   : 1 080 pixels
Display aspect ratio                     : 16:9
Frame rate mode                          : Constant
Frame rate                               : 23.976 (24000/1001) FPS
Color space                              : YUV
Chroma subsampling                       : 4:2:0
Bit depth                                : 8 bits
Scan type                                : Progressive
Bits/(Pixel*Frame)                       : 0.232
Stream size                              : 6.71 GiB (88%)
Title                                    : Secret.At.Arrow.Lake.2009.1080p.BluRay.x264.DTS-FGT
Writing library                          : x264 core 148 r2795M aaa9aa8
Encoding settings                        : cabac=1 / ref=4 / deblock=1:-2:-2 / analyse=0x3:0x113 / me=umh / subme=9 / psy=1 / psy_rd=1.00:0.15 / mixed_ref=1 / me_range=16 / chroma_me=1 / trellis=2 / 8x8dct=1 / cqm=0 / deadzone=21,11 / fast_pskip=1 / chroma_qp_offset=-3 / threads=24 / lookahead_threads=3 / sliced_threads=0 / nr=0 / decimate=1 / interlaced=0 / bluray_compat=0 / constrained_intra=0 / bframes=3 / b_pyramid=2 / b_adapt=1 / b_bias=0 / direct=3 / weightb=1 / open_gop=0 / weightp=2 / keyint=250 / keyint_min=25 / scenecut=40 / intra_refresh=0 / rc_lookahead=50 / rc=2pass / mbtree=1 / bitrate=11500 / ratetol=1.0 / qcomp=0.60 / qpmin=0 / qpmax=69 / qpstep=4 / cplxblur=20.0 / qblur=0.5 / vbv_maxrate=31250 / vbv_bufsize=31250 / nal_hrd=none / filler=0 / ip_ratio=1.40 / aq=1:1.00
Language                                 : English
Default                                  : Yes
Forced                                   : No

Audio
ID                                       : 2
Format                                   : DTS
Format/Info                              : Digital Theater Systems
Codec ID                                 : A_DTS
Duration                                 : 1 h 23 min
Bit rate mode                            : Constant
Bit rate                                 : 1 509 kb/s
Channel(s)                               : 2 channels
Channel layout                           : L R
Sampling rate                            : 48.0 kHz
Frame rate                               : 93.750 FPS (512 SPF)
Bit depth                                : 16 bits
Compression mode                         : Lossy
Stream size                              : 902 MiB (12%)
Title                                    : Secret.At.Arrow.Lake.2009.1080p.BluRay.x264.DTS-FGT
Language                                 : English
Default                                  : Yes
Forced                                   : No

Text
ID                                       : 3
Format                                   : UTF-8
Codec ID                                 : S_TEXT/UTF8
Codec ID/Info                            : UTF-8 Plain Text
Duration                                 : 1 h 19 min
Bit rate                                 : 60 b/s
Count of elements                        : 1314
Stream size                              : 35.7 KiB (0%)
Language                                 : English
Default                                  : Yes
Forced                                   : No

Menu
00:00:00.000                             : en:Chapter 1
00:04:50.290                             : en:Chapter 2
00:15:06.656                             : en:Chapter 3
00:24:36.934                             : en:Chapter 4
00:33:11.531                             : en:Chapter 5
00:42:30.631                             : en:Chapter 6
00:49:32.887                             : en:Chapter 7
00:56:22.796                             : en:Chapter 8
01:01:52.876                             : en:Chapter 9
01:08:41.743                             : en:Chapter 10
01:16:35.925                             : en:Chapter 11
01:20:45.340                             : en:Chapter 12



                                                                                                                                                                                                        
                                                                                                                                                                                                                                                                                                                                                                                                                                                                                                                                                                                                                                                                                                                                                                                                                                                        
442b61c4bff5c87445e1b934abc88a68.torrent (38.51 KB)

回复

使用道具 举报

您需要登录后才可以回帖 登录 | 立即注册

本版积分规则

磁力链接吧  |网站地图

本网站所有资源来自网络,如无意中侵犯了您的权益,请发邮件至 804136696@qq.com,立即清除相关链接

GMT+8, 2019-8-22 22:08 , Processed in 0.145542 second(s), 29 queries .

Powered by Discuz! X3.2

© 2001-2013 Comsenz Inc.

快速回复 返回顶部 返回列表