请选择 进入手机版 | 继续访问电脑版

磁力吧

 找回密码
 立即注册

罗宫春色/罗宫殉情记 The.Sign.of.the.Cross.1932.1080p.BluRay.x264-HAN...

[复制链接]

磁力链接 发表于 2019-7-9 23:10:31 | 显示全部楼层 |阅读模式



帖子完整标题:罗宫春色/罗宫殉情记 The.Sign.of.the.Cross.1932.1080p.BluRay.x264-HANDJOB 10.12GB




◎译  名 罗宫春色 / 罗宫殉情记
◎片  名 The Sign of the Cross
◎年  代 1932
◎产  地 美国
◎类  别 剧情 / 历史
◎语  言 英语
◎上映日期 1932-11-30
◎片  长 West Germany: 108 分钟
◎导  演 Cecil B. DeMille
◎编  剧 Sidney Buchman / Waldemar Young
◎主  演 Fredric March
      Elissa Landi
      Claudette Colbert


◎标  签 罗宫春色 | 情色 | 立即看 | 禁片 | 美国电影 | 美国 | 欧洲 | Cecil.B.DeMille

◎简  介  

  把罗马焚城后,惨无人道的暴君尼禄(查尔斯·劳顿 Charles Laughton 饰)将矛头指向基督徒,开始大规模肆意捕杀基督徒。不仅如此,尼禄更颁布了法令把抓获的基督徒送往竞技场。罗马最高军事军官马库斯(弗雷德里克·马奇 Fredric March 饰)奉命残杀这些捕获的基督徒。被抓的基督徒中有两名老者准备逃跑,马库斯本欲逮捕他们,然而当马库斯看到他们的继女麦西卡(爱丽莎·兰迪 Elissa Landi 饰)时,情不自禁地一见倾心。楚楚动人的麦西卡,马库斯很快与她坠入爱河不能自拔,随之下令释放了所有基督徒。马库斯的这一举动,不仅激怒了暴君尼禄,更让一直暗恋他的皇后帕亚(克劳黛·考尔白 Claudette Colbert 饰)醋意大发,心生嫉妒。

◎获奖情况  

  第6届奥斯卡金像奖(1934)
  最佳摄影(提名) Karl Struss


Video
ID                                       : 1
Format                                   : AVC
Format/Info                              : Advanced Video Codec
Format settings                          : CABAC / 5 Ref Frames
Format settings, CABAC                   : Yes
Format settings, ReFrames                : 5 frames
Codec ID                                 : V_MPEG4/ISO/AVC
Duration                                 : 2 h 5 min
Bit rate                                 : 11.4 Mb/s
Width                                    : 1 452 pixels
Height                                   : 1 080 pixels
Display aspect ratio                     : 4:3
Frame rate mode                          : Constant
Frame rate                               : 23.976 (24000/1001) FPS
Color space                              : YUV
Chroma subsampling                       : 4:2:0
Bit depth                                : 8 bits
Scan type                                : Progressive
Bits/(Pixel*Frame)                       : 0.304
Stream size                              : 10.0 GiB (99%)
Writing library                          : x264 core 157 r2935 545de2f
Encoding settings                        : cabac=1 / ref=5 / deblock=1:-3:-3 / analyse=0x3:0x133 / me=umh / subme=10 / psy=1 / psy_rd=1.00:0.00 / mixed_ref=1 / me_range=32 / chroma_me=1 / trellis=2 / 8x8dct=1 / cqm=0 / deadzone=21,11 / fast_pskip=0 / chroma_qp_offset=-2 / threads=12 / lookahead_threads=3 / sliced_threads=0 / nr=0 / decimate=0 / interlaced=0 / bluray_compat=0 / constrained_intra=0 / bframes=11 / b_pyramid=2 / b_adapt=2 / b_bias=0 / direct=3 / weightb=1 / open_gop=0 / weightp=2 / keyint=240 / keyint_min=24 / scenecut=40 / intra_refresh=0 / rc_lookahead=60 / rc=crf / mbtree=0 / crf=20.5 / qcomp=0.60 / qpmin=0 / qpmax=69 / qpstep=4 / vbv_maxrate=62500 / vbv_bufsize=78125 / crf_max=0.0 / nal_hrd=none / filler=0 / ip_ratio=1.40 / pb_ratio=1.30 / aq=2:1.00
Default                                  : Yes
Forced                                   : No
Color range                              : Limited
Color primaries                          : BT.709
Transfer characteristics                 : BT.709
Matrix coefficients                      : BT.709

Audio
ID                                       : 2
Format                                   : AAC LC
Format/Info                              : Advanced Audio Codec Low Complexity
Codec ID                                 : A_AAC-2
Duration                                 : 2 h 5 min
Bit rate                                 : 108 kb/s
Channel(s)                               : 2 channels
Channel layout                           : L R
Sampling rate                            : 48.0 kHz
Frame rate                               : 46.875 FPS (1024 SPF)
Compression mode                         : Lossy
Stream size                              : 96.9 MiB (1%)
Language                                 : English
Default                                  : Yes
Forced                                   : No

Text #1
ID                                       : 3
Format                                   : UTF-8
Codec ID                                 : S_TEXT/UTF8
Codec ID/Info                            : UTF-8 Plain Text
Duration                                 : 2 h 0 min
Bit rate                                 : 51 b/s
Count of elements                        : 1434
Stream size                              : 45.6 KiB (0%)
Language                                 : English
Default                                  : No
Forced                                   : No

Text #2
ID                                       : 4
Format                                   : UTF-8
Codec ID                                 : S_TEXT/UTF8
Codec ID/Info                            : UTF-8 Plain Text
Duration                                 : 2 h 2 min
Bit rate                                 : 43 b/s
Count of elements                        : 1300
Stream size                              : 39.1 KiB (0%)
Language                                 : French
Default                                  : No
Forced                                   : No

Menu
00:00:00.000                             : :Chapter 1
00:07:47.016                             : :Chapter 2
00:12:23.375                             : :Chapter 3
00:19:47.269                             : :Chapter 4
00:30:13.394                             : :Chapter 5
00:36:00.541                             : :Chapter 6
00:43:21.982                             : :Chapter 7
00:54:03.206                             : :Chapter 8
01:05:39.585                             : :Chapter 9
01:12:09.058                             : :Chapter 10
01:18:27.185                             : :Chapter 11
01:24:27.262                             : :Chapter 12
01:32:31.946                             : :Chapter 13
01:36:34.755                             : :Chapter 14
01:40:57.434                             : :Chapter 15
01:51:11.665                             : :Chapter 16
01:59:47.346                             : :Chapter 17
02:04:59.291                             : :Chapter 18



                                                                                                                                                                                                        
                                                                                                                                                                                                                                                                                                                                                                                                                                                                                                                                                                                                                                                                                                                                                                                                                                                        
6693572ea0421a290743b828adf6be58.torrent (51.15 KB)

回复

使用道具 举报

您需要登录后才可以回帖 登录 | 立即注册

本版积分规则

磁力链接吧  |网站地图

本网站所有资源来自网络,如无意中侵犯了您的权益,请发邮件至 804136696@qq.com,立即清除相关链接

GMT+8, 2019-8-19 14:41 , Processed in 0.090783 second(s), 29 queries .

Powered by Discuz! X3.2

© 2001-2013 Comsenz Inc.

快速回复 返回顶部 返回列表