请选择 进入手机版 | 继续访问电脑版

磁力吧

 找回密码
 立即注册

离婚之子 Children.Of.Divorce.1927.1080p.BluRay.x264.DTS-FGT 6.03GB

[复制链接]

磁力吧 发表于 2019-7-14 11:37:47 | 显示全部楼层 |阅读模式




帖子完整标题:离婚之子 Children.Of.Divorce.1927.1080p.BluRay.x264.DTS-FGT 6.03GB




◎译  名 离婚之子
◎片  名 Children of Divorce
◎年  代 1927
◎产  地 美国
◎类  别 剧情 / 爱情
◎上映日期 1927-04-25
◎片  长 USA: 70 分钟
◎导  演 Frank Lloyd / Josef von Sternberg
◎主  演 克拉拉·鲍 Clara Bow
      加里·库珀 Gary Cooper
      艾斯特·罗尔斯顿 Esther Ralston


◎标  签 1920s | 默片 | 美国 | BDMV | 1927 | 美國電影 | 美國 | 美国电影

◎简  介  

  暂无相关剧情介绍
Video
ID                                       : 1
Format                                   : AVC
Format/Info                              : Advanced Video Codec
Format settings                          : CABAC / 4 Ref Frames
Format settings, CABAC                   : Yes
Format settings, ReFrames                : 4 frames
Codec ID                                 : V_MPEG4/ISO/AVC
Duration                                 : 1 h 11 min
Bit rate                                 : 11.5 Mb/s
Width                                    : 1 460 pixels
Height                                   : 1 080 pixels
Display aspect ratio                     : 4:3
Frame rate mode                          : Constant
Frame rate                               : 23.976 (24000/1001) FPS
Color space                              : YUV
Chroma subsampling                       : 4:2:0
Bit depth                                : 8 bits
Scan type                                : Progressive
Bits/(Pixel*Frame)                       : 0.304
Stream size                              : 5.77 GiB (96%)
Title                                    : Children.Of.Divorce.1927.1080p.BluRay.x264.DTS-FGT
Writing library                          : x264 core 148 r2795M aaa9aa8
Encoding settings                        : cabac=1 / ref=4 / deblock=1:-2:-2 / analyse=0x3:0x113 / me=umh / subme=9 / psy=1 / psy_rd=1.00:0.15 / mixed_ref=1 / me_range=16 / chroma_me=1 / trellis=2 / 8x8dct=1 / cqm=0 / deadzone=21,11 / fast_pskip=1 / chroma_qp_offset=-3 / threads=24 / lookahead_threads=3 / sliced_threads=0 / nr=0 / decimate=1 / interlaced=0 / bluray_compat=0 / constrained_intra=0 / bframes=3 / b_pyramid=2 / b_adapt=1 / b_bias=0 / direct=3 / weightb=1 / open_gop=0 / weightp=2 / keyint=250 / keyint_min=25 / scenecut=40 / intra_refresh=0 / rc_lookahead=50 / rc=2pass / mbtree=1 / bitrate=11500 / ratetol=1.0 / qcomp=0.60 / qpmin=0 / qpmax=69 / qpstep=4 / cplxblur=20.0 / qblur=0.5 / vbv_maxrate=31250 / vbv_bufsize=31250 / nal_hrd=none / filler=0 / ip_ratio=1.40 / aq=1:1.00
Language                                 : English
Default                                  : Yes
Forced                                   : No

Audio
ID                                       : 2
Format                                   : DTS
Format/Info                              : Digital Theater Systems
Codec ID                                 : A_DTS
Duration                                 : 1 h 11 min
Bit rate mode                            : Constant
Bit rate                                 : 510 kb/s
Channel(s)                               : 2 channels
Channel layout                           : L R
Sampling rate                            : 48.0 kHz
Frame rate                               : 93.750 FPS (512 SPF)
Bit depth                                : 16 bits
Compression mode                         : Lossy
Stream size                              : 262 MiB (4%)
Title                                    : Children.Of.Divorce.1927.1080p.BluRay.x264.DTS-FGT
Language                                 : English
Default                                  : Yes
Forced                                   : No

Menu
00:00:00.000                             : en:Inconvenient Children
00:04:54.294                             : en:Teddy
00:11:16.843                             : en:Reconnecting in America
00:16:42.210                             : en:Cutting In
00:23:59.688                             : en:Bridges
00:32:38.165                             : en:One-Night Bride
00:44:16.654                             : en:Return to Paris
00:53:47.516                             : en:Another Child of Divorce
01:04:06.718                             : en:The Mother of His Child



                                                                                                                                                                                                        
                                                                                                                                                                                                                                                                                                                                                                                                                                                                                                                                                                                                                                                                                                                                                                                                                                                        
981c8ce225837480f507796ba1f035a0.torrent (30.7 KB)

回复

使用道具 举报

您需要登录后才可以回帖 登录 | 立即注册

本版积分规则

磁力链接吧  |网站地图

本网站所有资源来自网络,如无意中侵犯了您的权益,请发邮件至 804136696@qq.com,立即清除相关链接

GMT+8, 2019-8-23 06:00 , Processed in 0.085477 second(s), 29 queries .

Powered by Discuz! X3.2

© 2001-2013 Comsenz Inc.

快速回复 返回顶部 返回列表