请选择 进入手机版 | 继续访问电脑版

磁力吧

 找回密码
 立即注册

美女露露/露露·贝尔 Lulu.Belle.1948.1080p.BluRay.x264.DTS-FGT 7.91GB

[复制链接]

磁力吧 发表于 2019-7-14 11:37:47 | 显示全部楼层 |阅读模式




帖子完整标题:美女露露/露露·贝尔 Lulu.Belle.1948.1080p.BluRay.x264.DTS-FGT 7.91GB




◎译  名 美女露露 / 露露·贝尔
◎片  名 Lulu Belle
◎年  代 1948
◎产  地 美国
◎类  别 剧情
◎语  言 英语
◎上映日期 1948
◎IMDb评分  6.0/10 from 104 users
◎片  长 86 分钟
◎导  演 Leslie Fenton
◎编  剧 Everett Freeman
◎主  演 多萝西·拉莫尔 Dorothy Lamour
      乔治·蒙哥马利 George Montgomery
      阿尔伯特·德科 Albert Dekker
      奥托·克鲁格 Otto Kruger
      格伦达·法瑞尔 Glenda Farrell
      Greg McClure
      Charlotte Wynters
      Addison Richards


◎标  签 不是默片 | 美国 | America

◎简  介  

  暂无相关剧情介绍
Video
ID                                       : 1
Format                                   : AVC
Format/Info                              : Advanced Video Codec
Format settings                          : CABAC / 4 Ref Frames
Format settings, CABAC                   : Yes
Format settings, ReFrames                : 4 frames
Codec ID                                 : V_MPEG4/ISO/AVC
Duration                                 : 1 h 27 min
Bit rate                                 : 11.5 Mb/s
Width                                    : 1 472 pixels
Height                                   : 1 076 pixels
Display aspect ratio                     : 4:3
Frame rate mode                          : Constant
Frame rate                               : 23.976 (24000/1001) FPS
Color space                              : YUV
Chroma subsampling                       : 4:2:0
Bit depth                                : 8 bits
Scan type                                : Progressive
Bits/(Pixel*Frame)                       : 0.303
Stream size                              : 6.99 GiB (88%)
Title                                    : Lulu.Belle.1948.1080p.BluRay.x264.DTS-FGT
Writing library                          : x264 core 148 r2795M aaa9aa8
Encoding settings                        : cabac=1 / ref=4 / deblock=1:-2:-2 / analyse=0x3:0x113 / me=umh / subme=9 / psy=1 / psy_rd=1.00:0.15 / mixed_ref=1 / me_range=16 / chroma_me=1 / trellis=2 / 8x8dct=1 / cqm=0 / deadzone=21,11 / fast_pskip=1 / chroma_qp_offset=-3 / threads=24 / lookahead_threads=3 / sliced_threads=0 / nr=0 / decimate=1 / interlaced=0 / bluray_compat=0 / constrained_intra=0 / bframes=3 / b_pyramid=2 / b_adapt=1 / b_bias=0 / direct=3 / weightb=1 / open_gop=0 / weightp=2 / keyint=250 / keyint_min=25 / scenecut=40 / intra_refresh=0 / rc_lookahead=50 / rc=2pass / mbtree=1 / bitrate=11500 / ratetol=1.0 / qcomp=0.60 / qpmin=0 / qpmax=69 / qpstep=4 / cplxblur=20.0 / qblur=0.5 / vbv_maxrate=31250 / vbv_bufsize=31250 / nal_hrd=none / filler=0 / ip_ratio=1.40 / aq=1:1.00
Language                                 : English
Default                                  : Yes
Forced                                   : No

Audio
ID                                       : 2
Format                                   : DTS
Format/Info                              : Digital Theater Systems
Codec ID                                 : A_DTS
Duration                                 : 1 h 27 min
Bit rate mode                            : Constant
Bit rate                                 : 1 509 kb/s
Channel(s)                               : 2 channels
Channel layout                           : L R
Sampling rate                            : 48.0 kHz
Frame rate                               : 93.750 FPS (512 SPF)
Bit depth                                : 24 bits
Compression mode                         : Lossy
Stream size                              : 939 MiB (12%)
Title                                    : Lulu.Belle.1948.1080p.BluRay.x264.DTS-FGT
Language                                 : English
Default                                  : Yes
Forced                                   : No

Text
ID                                       : 3
Format                                   : UTF-8
Codec ID                                 : S_TEXT/UTF8
Codec ID/Info                            : UTF-8 Plain Text
Duration                                 : 1 h 23 min
Bit rate                                 : 66 b/s
Count of elements                        : 1505
Stream size                              : 40.6 KiB (0%)
Language                                 : English
Default                                  : Yes
Forced                                   : No

Menu
00:00:00.000                             : en:Chapter 01
00:00:10.927                             : en:Chapter 02
00:09:43.375                             : en:Chapter 03
00:21:54.021                             : en:Chapter 04
00:33:48.276                             : en:Chapter 05
00:44:58.571                             : en:Chapter 06
00:54:51.121                             : en:Chapter 07
01:06:27.859                             : en:Chapter 08
01:17:49.957                             : en:Chapter 09
01:27:01.842                             : en:Chapter 10



                                                                                                                                                                                                        
                                                                                                                                                                                                                                                                                                                                                                                                                                                                                                                                                                                                                                                                                                                                                                                                                                                        
47ce6a272c37260319708121c1a33545.torrent (40.05 KB)

回复

使用道具 举报

您需要登录后才可以回帖 登录 | 立即注册

本版积分规则

磁力链接吧  |网站地图

本网站所有资源来自网络,如无意中侵犯了您的权益,请发邮件至 804136696@qq.com,立即清除相关链接

GMT+8, 2019-8-19 13:29 , Processed in 0.089604 second(s), 29 queries .

Powered by Discuz! X3.2

© 2001-2013 Comsenz Inc.

快速回复 返回顶部 返回列表