请选择 进入手机版 | 继续访问电脑版

磁力吧

 找回密码
 立即注册

杜巴先生 Mr.Topaze.1961.1080p.BluRay.x264.DTS-FGT 8.14GB

[复制链接]

磁力链接 发表于 2019-7-14 11:37:47 | 显示全部楼层 |阅读模式




帖子完整标题:杜巴先生 Mr.Topaze.1961.1080p.BluRay.x264.DTS-FGT 8.14GB




◎译  名 杜巴先生 / I Like Money / 托帕兹先生
◎片  名 Mr. Topaze
◎年  代 1961
◎产  地 英国
◎类  别 剧情 / 喜剧
◎语  言 英语
◎上映日期 1962-09
◎IMDb评分  6.3/10 from 103 users
◎片  长 97 分钟
◎导  演 Peter Sellers
◎编  剧 Marcel Pagnol
◎主  演 Peter Sellers
      Nadia Gray
      Herbert Lom


◎标  签 经典 | 英国电影 | 英国 | 无资源 | 彼得·塞勒斯 | Peter_Sellers | BFI | BDMV

◎简  介  

  Mr. Topaze ('Peter Sellers' ) is an unassuming school teacher in an unassuming small French town who is honest to a fault. He is fired when he refuses to give a passing grade to a bad student, the grandson of a wealthy baroness. Castel Benac (Herbert Lom), a government official who runs a crooked financial business on the side, is persuaded by his mistress, Suzy (Nadia Gray), a musical comedy actress, to hire Mr. Topaze as the front man for his business. Gradually, Topaze becomes a rapacious financier who sacrifices his honesty for success and, in a final stroke of business bravado, fires Benac and acquires Suzy in the deal. An old friend and colleague, Tamise (Michael Gough) questions him and tells Topaze that if what he now says and practices indicates there are no more honest men.
Video
ID                                       : 1
Format                                   : AVC
Format/Info                              : Advanced Video Codec
Format settings                          : CABAC / 4 Ref Frames
Format settings, CABAC                   : Yes
Format settings, ReFrames                : 4 frames
Codec ID                                 : V_MPEG4/ISO/AVC
Duration                                 : 1 h 37 min
Bit rate                                 : 11.5 Mb/s
Width                                    : 1 920 pixels
Height                                   : 816 pixels
Display aspect ratio                     : 2.35:1
Frame rate mode                          : Constant
Frame rate                               : 24.000 FPS
Color space                              : YUV
Chroma subsampling                       : 4:2:0
Bit depth                                : 8 bits
Scan type                                : Progressive
Bits/(Pixel*Frame)                       : 0.306
Stream size                              : 7.79 GiB (96%)
Title                                    : Mr.Topaze.1961.1080p.BluRay.x264.DTS-FGT
Writing library                          : x264 core 148 r2795M aaa9aa8
Encoding settings                        : cabac=1 / ref=4 / deblock=1:-2:-2 / analyse=0x3:0x113 / me=umh / subme=9 / psy=1 / psy_rd=1.00:0.15 / mixed_ref=1 / me_range=16 / chroma_me=1 / trellis=2 / 8x8dct=1 / cqm=0 / deadzone=21,11 / fast_pskip=1 / chroma_qp_offset=-3 / threads=24 / lookahead_threads=3 / sliced_threads=0 / nr=0 / decimate=1 / interlaced=0 / bluray_compat=0 / constrained_intra=0 / bframes=3 / b_pyramid=2 / b_adapt=1 / b_bias=0 / direct=3 / weightb=1 / open_gop=0 / weightp=2 / keyint=250 / keyint_min=25 / scenecut=40 / intra_refresh=0 / rc_lookahead=50 / rc=2pass / mbtree=1 / bitrate=11500 / ratetol=1.0 / qcomp=0.60 / qpmin=0 / qpmax=69 / qpstep=4 / cplxblur=20.0 / qblur=0.5 / vbv_maxrate=31250 / vbv_bufsize=31250 / nal_hrd=none / filler=0 / ip_ratio=1.40 / aq=1:1.00
Language                                 : English
Default                                  : Yes
Forced                                   : No

Audio
ID                                       : 2
Format                                   : DTS
Format/Info                              : Digital Theater Systems
Codec ID                                 : A_DTS
Duration                                 : 1 h 37 min
Bit rate mode                            : Constant
Bit rate                                 : 510 kb/s
Channel(s)                               : 2 channels
Channel layout                           : L R
Sampling rate                            : 48.0 kHz
Frame rate                               : 93.750 FPS (512 SPF)
Bit depth                                : 24 bits
Compression mode                         : Lossy
Stream size                              : 354 MiB (4%)
Title                                    : Mr.Topaze.1961.1080p.BluRay.x264.DTS-FGT
Language                                 : English
Default                                  : Yes
Forced                                   : No

Text
ID                                       : 3
Format                                   : UTF-8
Codec ID                                 : S_TEXT/UTF8
Codec ID/Info                            : UTF-8 Plain Text
Duration                                 : 1 h 32 min
Bit rate                                 : 86 b/s
Count of elements                        : 1543
Stream size                              : 58.6 KiB (0%)
Language                                 : English
Default                                  : Yes
Forced                                   : No

Menu
00:00:00.000                             : en:Chapter 01
00:06:29.583                             : en:Chapter 02
00:14:58.667                             : en:Chapter 03
00:23:36.667                             : en:Chapter 04
00:28:09.708                             : en:Chapter 05
00:33:00.708                             : en:Chapter 06
00:46:58.000                             : en:Chapter 07
00:54:23.125                             : en:Chapter 08
01:02:58.292                             : en:Chapter 09
01:12:46.000                             : en:Chapter 10
01:22:14.708                             : en:Chapter 11
01:33:51.000                             : en:Chapter 12



                                                                                                                                                                                                        
                                                                                                                                                                                                                                                                                                                                                                                                                                                                                                                                                                                                                                                                                                                                                                                                                                                        
404a2ff7ddb3fa3a0b24b4394bb82484.torrent (41.2 KB)

回复

使用道具 举报

您需要登录后才可以回帖 登录 | 立即注册

本版积分规则

磁力链接吧  |网站地图

本网站所有资源来自网络,如无意中侵犯了您的权益,请发邮件至 804136696@qq.com,立即清除相关链接

GMT+8, 2019-8-19 13:31 , Processed in 0.083087 second(s), 29 queries .

Powered by Discuz! X3.2

© 2001-2013 Comsenz Inc.

快速回复 返回顶部 返回列表