请选择 进入手机版 | 继续访问电脑版

磁力吧

 找回密码
 立即注册

[网盘下载][巴比龙][HEVC][1080P][MP4/3.42G][英语中字]

[复制链接]

磁力吧 发表于 2019-7-14 11:06:46 | 显示全部楼层 |阅读模式
-->



◎译  名 Papillon


◎片  名 巴比龙


◎年  代 2017


◎产  地 美国 / 捷克 / 西班牙


◎类  别 剧情/悬疑/犯罪


◎语  言 英语 / 西班牙语


◎片  长 133分钟


◎上映日期 2017-09-07(多伦多电影节)/2018-08-24(美国)


◎IMDb评分  7.1/10 from 29944 users



◎导  演  迈克尔·诺尔


◎主  演 查理·汉纳姆
            拉米·马雷克
            汤米·弗拉纳根
            伊芙·休森
            迈克尔·索恰
            伊恩·比蒂
            罗兰·默勒
            约里克·范·韦杰宁根
            乔尔·巴斯曼
            瑞沙德·斯垂克
            卡利·内勒
            妮娜·塞尼卡
            尼古拉·肯特
            斯拉夫科·索宾
            戈兰·纳沃耶克


◎简  介


  影片翻拍自1973年史蒂夫·麦奎因与达斯汀·霍夫曼主演的同名经典越狱电影,讲述了湖南哥饰演的职业扒手亨利被人陷害杀害一名皮条客,从而流放至大海环绕的法属圭亚那的监狱服刑,因为胸前有一处蝴蝶纹身,所以同窗狱友都叫他“巴比龙”。




  在踏入监狱的那一天开始,巴比龙就策划越狱,但越狱是需要用金钱去贿赂看守,同时购买逃跑船只的,于是他将目光投向了同时服刑的伪造专家,同时是百万富翁,由拉米·马雷克饰演的Louis,用保证德加安全的方式获得其金钱资助,两人结成同盟……

General
Complete name                            : G:\115下载\HEVC.1080P.mp4
Format                                   : MPEG-4
Format profile                           : Base Media
Codec ID                                 : isom (isom/iso2/mp41)
File size                                : 3.43 GiB
Duration                                 : 2 h 13 min
Overall bit rate                         : 3 684 kb/s
Writing application                      : Lavf58.20.100
Cover                                    : Yes


Video
ID                                       : 1
Format                                   : HEVC
Format/Info                              : High Efficiency Video Coding
Codec ID                                 : hev1
Codec ID/Info                            : High Efficiency Video Coding
Duration                                 : 2 h 13 min
Source duration                          : 49 min 35 s
Source_Duration_LastFrame                : 2 ms
Bit rate                                 : 3 620 kb/s
Width                                    : 1 920 pixels
Height                                   : 1 080 pixels
Display aspect ratio                     : 16:9
Frame rate mode                          : Constant
Frame rate                               : 23.976 FPS
Original frame rate                      : 23.000 FPS
Color space                              : YUV
Chroma subsampling                       : 4:2:0
Bit depth                                : 8 bits
Bits/(Pixel*Frame)                       : 0.073
Stream size                              : 3.37 GiB (98%)
Source stream size                       : 3.37 GiB (98%)
Menus                                    : 3
mdhd_Duration                            : 7994752
Codec configuration box                  : hvcC


Audio
ID                                       : 2
Format                                   : AAC LC
Format/Info                              : Advanced Audio Codec Low Complexity
Codec ID                                 : mp4a-40-2
Duration                                 : 2 h 13 min
Bit rate mode                            : Constant
Bit rate                                 : 59.9 kb/s
Channel(s)                               : 2 channels
Channel layout                           : L R
Sampling rate                            : 48.0 kHz
Frame rate                               : 46.875 FPS (1024 SPF)
Compression mode                         : Lossy
Stream size                              : 57.1 MiB (2%)
Default                                  : Yes
Alternate group                          : 1
Menus                                    : 3


Menu
ID                                       : 3
Codec ID                                 : text
Duration                                 : 2 h 13 min
Language                                 : English
Menu For                                 : 1,2

链接: https://pan.baidu.com/s/1LqjofsfOus0HxmcEFR9Q5A 提取码: ty25

回复

使用道具 举报

您需要登录后才可以回帖 登录 | 立即注册

本版积分规则

磁力链接吧  |网站地图

本网站所有资源来自网络,如无意中侵犯了您的权益,请发邮件至 804136696@qq.com,立即清除相关链接

GMT+8, 2019-8-23 06:45 , Processed in 0.079747 second(s), 26 queries .

Powered by Discuz! X3.2

© 2001-2013 Comsenz Inc.

快速回复 返回顶部 返回列表