请选择 进入手机版 | 继续访问电脑版

磁力吧

 找回密码
 立即注册

[网盘下载][冷血追击][H265][BD-MP4/3.68GB][中英特效双字][1080P...

[复制链接]

磁力链接 发表于 2019-7-14 07:21:29 | 显示全部楼层 |阅读模式
-->


导演: 汉斯·皮特·莫郎
编剧: 弗兰克·鲍德温 / 基姆·弗帕兹·艾克森
主演: 连姆·尼森 / 劳拉·邓恩 / 米切尔·理查德森 / 迈克尔·艾克朗德 / 布拉德利·斯泰克尔 / 韦斯利·麦金尼斯 / 汤姆·巴特曼 / 多米尼克·隆巴多兹 / 尼古拉斯·福尔摩斯 / 吉姆·谢尔德 / 阿莱克斯·潘诺维奇
类型: 剧情 / 动作 / 惊悚
制片国家/地区: 英国 / 挪威 / 加拿大 / 美国
语言: 英语
上映日期: 2019(中国大陆) / 2019-02-08(美国) / 2019-02-22(英国)
片长: 119分钟
又名: 冰天动地(港) / 酷寒杀手(台) / 穷追不舍 / 冰峰追击 / 硬粉 / Hard Powder / In Order of Disappearance
IMDb链接: tt5719748


  尼尔斯·考克斯曼(连姆·尼森 饰)是科罗拉多基侯滑雪场的扫雪车司机,身为荣誉市民的他终日勤恳工作,以保证这座宁静小镇交通的顺畅。有天突然传来儿子身亡的消息。为了追查出杀害儿子的真凶,怒火中烧的尼尔斯不惜以身犯险,卷入重重杀人案,踏上了歼灭贩毒团伙的道路。复仇路上,狂妄冷 血的毒枭“海盗哥”、残暴的印第安帮派首脑“大白”等浮出水面,错综复杂的凶狠敌军、险象环生的黑帮对峙、以及枪林弹雨下的生死大战,一场冤冤相报的血雨腥风席卷了这座雪白安宁的小镇……

General
Complete name                            : G:\115下载\Cold.Pursuit.2019.2160p.UHD.BluRay.x265-TERMiNAL\HEVC.1080P.mp4
Format                                   : MPEG-4
Format profile                           : Base Media
Codec ID                                 : isom (isom/iso2/mp41)
File size                                : 3.68 GiB
Duration                                 : 1 h 59 min
Overall bit rate                         : 4 423 kb/s
Writing application                      : Lavf58.20.100


Video
ID                                       : 1
Format                                   : HEVC
Format/Info                              : High Efficiency Video Coding
Codec ID                                 : hev1
Codec ID/Info                            : High Efficiency Video Coding
Duration                                 : 1 h 58 min
Duration_LastFrame                       : 2 ms
Bit rate                                 : 4 304 kb/s
Width                                    : 1 920 pixels
Height                                   : 1 080 pixels
Display aspect ratio                     : 16:9
Frame rate mode                          : Constant
Frame rate                               : 23.976 (23976/1000) FPS
Original frame rate                      : 23.000 FPS
Color space                              : YUV
Chroma subsampling                       : 4:2:0
Bit depth                                : 8 bits
Bits/(Pixel*Frame)                       : 0.087
Stream size                              : 3.58 GiB (97%)
Menus                                    : 3
Codec configuration box                  : hvcC


Audio
ID                                       : 2
Format                                   : AAC LC
Format/Info                              : Advanced Audio Codec Low Complexity
Codec ID                                 : mp4a-40-2
Duration                                 : 1 h 59 min
Bit rate mode                            : Constant
Bit rate                                 : 115 kb/s
Channel(s)                               : 2 channels
Channel layout                           : L R
Sampling rate                            : 48.0 kHz
Frame rate                               : 46.875 FPS (1024 SPF)
Compression mode                         : Lossy
Stream size                              : 98.0 MiB (3%)
Default                                  : Yes
Alternate group                          : 1
Menus                                    : 3


Menu #1
ID                                       : 3
Codec ID                                 : text
Duration                                 : 1 h 59 min
Language                                 : English
Menu For                                 : 1,2


Menu #2

链接: https://pan.baidu.com/s/1DS3vyIEIWSxVZ7rkze0ZjQ 提取码: p8k8


                                                                        

回复

使用道具 举报

您需要登录后才可以回帖 登录 | 立即注册

本版积分规则

磁力链接吧  |网站地图

本网站所有资源来自网络,如无意中侵犯了您的权益,请发邮件至 804136696@qq.com,立即清除相关链接

GMT+8, 2019-8-19 14:29 , Processed in 0.096524 second(s), 26 queries .

Powered by Discuz! X3.2

© 2001-2013 Comsenz Inc.

快速回复 返回顶部 返回列表