请选择 进入手机版 | 继续访问电脑版

磁力吧

 找回密码
 立即注册

[网盘下载][阿丽塔:战斗天使][H265][MP4/6G][4K][英语中字]

[复制链接]

磁力吧 发表于 2019-7-14 07:21:29 | 显示全部楼层 |阅读模式
-->




阿丽塔:战斗天使
Alita: Battle Angel (2019)


导演: 罗伯特·罗德里格兹
编剧: 詹姆斯·卡梅隆 / 莱塔·卡罗格里迪斯 / 木城幸人
主演: 罗莎·萨拉查 / 克里斯托弗·沃尔兹 / 基恩·约翰逊 / 艾德·斯克林 / 马赫沙拉·阿里 / 更多...
类型: 动作 / 科幻 / 冒险
制片国家/地区: 美国 / 加拿大 / 阿根廷
语言: 英语 / 西班牙语
上映日期: 2019-02-22(中国大陆) / 2019-02-05(台湾) / 2019-02-14(美国)
片长: 122分钟
又名: 铳梦 / 铳梦:战斗天使(港) / 艾莉塔:战斗天使(台)
IMDb链接: tt0437086


阿丽塔:战斗天使的剧情简介 · · · · · ·


  故事发生在遥远的26世纪,外科医生依德(克里斯托弗·瓦尔兹 Christoph Waltz 饰)在垃圾场里捡到了只剩下头部的机械少女将她带回家中,给她装上了本来为自己已故的女儿所准备的义体,并取名阿丽塔(罗莎·萨拉扎尔 Rosa Salazar 饰)。苏醒后的阿丽塔对这个五彩斑斓但却暴力而又残酷的世界产生了浓厚的兴趣,在结识了青年雨果(基恩·约翰逊 Keean Johnson 饰)后,阿丽塔开始接触名为机动球的运动,并在比赛中展现出了惊人的格斗天赋。
  在废铁城居民们的头顶,漂浮着巨大的浮空城市撒冷,废铁城居民们的一切劳作和付出,都是为了给撒冷提供继续运作的燃料。在大财阀维克特(马赫沙拉·阿里 Mahershala Ali 饰)所设立的机动球比赛中,最终获得冠军的人能够获得前往撒冷生活的资格,阿丽塔决定利用自己的格斗天赋参加比赛,却被卷入了一个巨大的阴谋之中。 ©豆瓣

General
Complete name                            : G:\电影\欧美电影\天使.2019.HEVC.1080P.WEB.英语简中.非凡科技影视小组\天使.2019.H265.4K.特效双语字幕.英语简中.微信公众号@电影解忧酱.mp4
Format                                   : MPEG-4
Format profile                           : Base Media
Codec ID                                 : isom (isom/iso2/mp41)
File size                                : 6.05 GiB
Duration                                 : 2 h 1 min
Overall bit rate                         : 7 099 kb/s
Writing application                      : Lavf58.20.100


Video
ID                                       : 1
Format                                   : HEVC
Format/Info                              : High Efficiency Video Coding
Codec ID                                 : hev1
Codec ID/Info                            : High Efficiency Video Coding
Duration                                 : 2 h 1 min
Source duration                          : 38 min 18 s
Source_Duration_LastFrame                : 2 ms
Bit rate                                 : 6 518 kb/s
Width                                    : 3 840 pixels
Height                                   : 2 160 pixels
Display aspect ratio                     : 4:3
Original display aspect ratio            : 16:9
Frame rate mode                          : Constant
Frame rate                               : 23.976 FPS
Original frame rate                      : 23.000 FPS
Color space                              : YUV
Chroma subsampling                       : 4:2:0
Bit depth                                : 8 bits
Bits/(Pixel*Frame)                       : 0.033
Stream size                              : 5.55 GiB (92%)
Source stream size                       : 5.55 GiB (92%)
Menus                                    : 3
mdhd_Duration                            : 7318032
Codec configuration box                  : hvcC


Audio
ID                                       : 2
Format                                   : E-AC-3 JOC
Format/Info                              : Enhanced AC-3 with Joint Object Coding
Commercial name                          : Dolby Digital Plus with Dolby Atmos
Codec ID                                 : ec-3
Duration                                 : 2 h 1 min
Bit rate mode                            : Constant
Bit rate                                 : 576 kb/s
Channel(s)                               : 6 channels
Channel layout                           : L R C LFE Ls Rs
Sampling rate                            : 48.0 kHz
Frame rate                               : 31.250 FPS (1536 SPF)
Bit depth                                : 16 bits
Compression mode                         : Lossy
Stream size                              : 502 MiB (8%)
Language                                 : English
Service kind                             : Complete Main
Default                                  : Yes
Alternate group                          : 1
Menus                                    : 3
Complexity index                         : Not present / 16
Number of dynamic objects                : 15
Bed channel count                        : 1 channel
Bed channel configuration                : LFE


Menu #1
ID                                       : 3
Codec ID                                 : text
Duration                                 : 2 h 1 min
Language                                 : English
Bit rate mode                            : CBR
Menu For                                 : 1,2

链接: https://pan.baidu.com/s/1sJeRmzz9Y-UQETz2KpR6-g 提取码: 7ko2


                                                                                      

回复

使用道具 举报

您需要登录后才可以回帖 登录 | 立即注册

本版积分规则

磁力链接吧  |网站地图

本网站所有资源来自网络,如无意中侵犯了您的权益,请发邮件至 804136696@qq.com,立即清除相关链接

GMT+8, 2019-8-23 06:02 , Processed in 0.080879 second(s), 26 queries .

Powered by Discuz! X3.2

© 2001-2013 Comsenz Inc.

快速回复 返回顶部 返回列表