请选择 进入手机版 | 继续访问电脑版

磁力吧

 找回密码
 立即注册

变态杀人魔/切生肉 Intruder.1989.1080p.BluRay.x264-LiViDiTY 6.55GB

[复制链接]

磁力吧 发表于 2019-7-13 11:36:19 | 显示全部楼层 |阅读模式




帖子完整标题:变态杀人魔/切生肉 Intruder.1989.1080p.BluRay.x264-LiViDiTY 6.55GB




◎译  名 变态杀人魔 / 切生肉
◎片  名 Intruder
◎年  代 1989
◎产  地 美国
◎类  别 惊悚 / 恐怖 / 犯罪
◎语  言 英语
◎上映日期 1989-01-27
◎IMDb评分  6.3/10 from 6450 users
◎片  长 83 分钟
◎导  演 斯科特·斯皮格尔 Scott Spiegel
◎编  剧 劳伦斯·班德 Lawrence Bender / 斯科特·斯皮格尔 Scott Spiegel
◎主  演 Elizabeth Cox
      蕾妮·艾斯特维兹 Renée Estevez
      Dan Hicks
      David Byrnes
      山姆·雷米 Sam Raimi
      Eugene Robert Glazer
      Billy Marti
      布尔·斯蒂尔斯 Burr Steers
      克雷格·斯塔克 Craig Stark
      泰德·雷米 Ted Raimi
      Alvy Moore
      Tom Lester
      Emil Sitka
      布鲁斯·坎贝尔  Bruce Campbell
      劳伦斯·班德 Lawrence Bender
      斯科特·斯皮格尔 Scott Spiegel


◎标  签 恐怖 | 血腥 | 美国 | 变态 | 惊悚 | 犯罪 | Cult | 美国电影

◎简  介  

  一家大型超级市场突然闯进一个凶神恶煞,他来找女友算帐,疯狂的举动搞得同事们紧张害怕。接着,一连串的恐怖凶杀案不断发生,死了不少人,大家都以为疯狂男友是凶手,其实……女主角眼见周遭都是四肢不全的尸体,变态杀人魔最后目标是她!身处险境,在残酷追杀过程中,她要如何死里逃生?
Video
ID                                       : 1
Format                                   : AVC
Format/Info                              : Advanced Video Codec
Format settings                          : CABAC / 4 Ref Frames
Format settings, CABAC                   : Yes
Format settings, ReFrames                : 4 frames
Codec ID                                 : V_MPEG4/ISO/AVC
Duration                                 : 1 h 27 min
Bit rate                                 : 10.3 Mb/s
Width                                    : 1 920 pixels
Height                                   : 1 080 pixels
Display aspect ratio                     : 16:9
Frame rate mode                          : Constant
Frame rate                               : 23.976 (24000/1001) FPS
Color space                              : YUV
Chroma subsampling                       : 4:2:0
Bit depth                                : 8 bits
Scan type                                : Progressive
Bits/(Pixel*Frame)                       : 0.208
Stream size                              : 6.18 GiB (94%)
Writing library                          : x264 core 132 r2310 76a5c3a
Encoding settings                        : cabac=1 / ref=4 / deblock=1:0:0 / analyse=0x3:0x113 / me=umh / subme=7 / psy=1 / psy_rd=1.00:0.00 / mixed_ref=1 / me_range=16 / chroma_me=1 / trellis=1 / 8x8dct=1 / cqm=0 / deadzone=21,11 / fast_pskip=0 / chroma_qp_offset=-2 / threads=6 / lookahead_threads=1 / sliced_threads=0 / nr=0 / decimate=1 / interlaced=0 / bluray_compat=0 / constrained_intra=0 / bframes=3 / b_pyramid=2 / b_adapt=1 / b_bias=0 / direct=1 / weightb=1 / open_gop=0 / weightp=2 / keyint=250 / keyint_min=23 / scenecut=40 / intra_refresh=0 / rc_lookahead=40 / rc=2pass / mbtree=1 / bitrate=10323 / ratetol=1.0 / qcomp=0.60 / qpmin=0 / qpmax=69 / qpstep=4 / cplxblur=20.0 / qblur=0.5 / ip_ratio=1.40 / aq=1:1.00
Default                                  : Yes
Forced                                   : No

Audio
ID                                       : 2
Format                                   : AC-3
Format/Info                              : Audio Coding 3
Codec ID                                 : A_AC3
Duration                                 : 1 h 27 min
Bit rate mode                            : Constant
Bit rate                                 : 384 kb/s
Channel(s)                               : 2 channels
Channel positions                        : Front: L R
Sampling rate                            : 48.0 kHz
Frame rate                               : 31.250 FPS (1536 SPF)
Bit depth                                : 16 bits
Compression mode                         : Lossy
Stream size                              : 241 MiB (4%)
Language                                 : English
Service kind                             : Complete Main
Default                                  : Yes
Forced                                   : No

Menu
00:00:00.000                             : en:00:00:00.000
00:15:24.549                             : en:00:15:24.549
00:27:20.931                             : en:00:27:20.931
00:38:30.975                             : en:00:38:30.975
00:47:42.860                             : en:00:47:42.860
00:53:42.386                             : en:00:53:42.386
00:59:01.079                             : en:00:59:01.079
01:15:43.998                             : en:01:15:43.998



                                                                                                                                                                                                        
                                                                                                                                                                                                                                                                                                                                                                                                                                                                                                                                                                                                                                                                                                                                                                                                                                                        
0f6cd6621e5e0007fc4fce70c49710cb.torrent (65.96 KB)

回复

使用道具 举报

您需要登录后才可以回帖 登录 | 立即注册

本版积分规则

磁力链接吧  |网站地图

本网站所有资源来自网络,如无意中侵犯了您的权益,请发邮件至 804136696@qq.com,立即清除相关链接

GMT+8, 2019-8-22 21:55 , Processed in 0.090214 second(s), 29 queries .

Powered by Discuz! X3.2

© 2001-2013 Comsenz Inc.

快速回复 返回顶部 返回列表