请选择 进入手机版 | 继续访问电脑版

磁力吧

 找回密码
 立即注册

它是活尸3:活尸岛/恶婴岛 Its.Alive.III.Island.of.the.Alive.1987.1080...

[复制链接]

磁力链接 发表于 2019-7-11 11:20:09 | 显示全部楼层 |阅读模式




帖子完整标题:它是活尸3:活尸岛/恶婴岛 Its.Alive.III.Island.of.the.Alive.1987.1080p.BluRay.x264-PSYCHD 9.84GB




◎译  名 它是活尸3:活尸岛 / 恶婴岛
◎片  名 It's Alive III: Island of the Alive
◎年  代 1987
◎产  地 美国
◎类  别 恐怖
◎语  言 英语
◎上映日期 1987-05
◎片  长 95 分钟
◎导  演 拉里·柯恩 Larry Cohen
◎编  剧 拉里·柯恩 Larry Cohen
◎主  演 Michael Moriarty


◎标  签 恐怖 | 惊悚 | 美国电影 | 美国 | cult | B级片 | 1987 | 拉里·柯恩

◎简  介  

  刚生下来的孩子竟然是怪物,贾维斯的儿子就是这样。对待这孩子的方法有两种,一种是杀死他,还有一种就是把他送到一个孤岛上去,让他和同类们自生自灭,贾维斯不得不做出选择……
Video
ID                                       : 1
Format                                   : AVC
Format/Info                              : Advanced Video Codec
Format settings                          : CABAC / 4 Ref Frames
Format settings, CABAC                   : Yes
Format settings, RefFrames               : 4 frames
Codec ID                                 : V_MPEG4/ISO/AVC
Duration                                 : 1 h 34 min
Bit rate                                 : 13.4 Mb/s
Width                                    : 1 920 pixels
Height                                   : 1 040 pixels
Display aspect ratio                     : 1.85:1
Frame rate mode                          : Constant
Frame rate                               : 23.976 (24000/1001) FPS
Color space                              : YUV
Chroma subsampling                       : 4:2:0
Bit depth                                : 8 bits
Scan type                                : Progressive
Bits/(Pixel*Frame)                       : 0.280
Stream size                              : 8.64 GiB (88%)
Writing library                          : x264 core 155 r2901 7d0ff22
Encoding settings                        : cabac=1 / ref=4 / deblock=1:-3:-3 / analyse=0x3:0x113 / me=umh / subme=8 / psy=1 / psy_rd=1.10:0.00 / mixed_ref=1 / me_range=32 / chroma_me=1 / trellis=2 / 8x8dct=1 / cqm=0 / deadzone=21,11 / fast_pskip=1 / chroma_qp_offset=-2 / threads=32 / lookahead_threads=5 / sliced_threads=0 / nr=0 / decimate=1 / interlaced=0 / bluray_compat=0 / constrained_intra=0 / bframes=3 / b_pyramid=2 / b_adapt=2 / b_bias=0 / direct=3 / weightb=1 / open_gop=0 / weightp=2 / keyint=240 / keyint_min=24 / scenecut=40 / intra_refresh=0 / rc_lookahead=50 / rc=2pass / mbtree=1 / bitrate=13418 / ratetol=1.0 / qcomp=0.60 / qpmin=0 / qpmax=69 / qpstep=4 / cplxblur=20.0 / qblur=0.5 / ip_ratio=1.40 / aq=3:0.75
Default                                  : Yes
Forced                                   : No
Statistics Tags Issue                    : no_variable_data 1970-01-01 00:00:00 / no_variable_data 2010-02-22 21:41:29
FromStats_BitRate                        : 13411425
FromStats_Duration                       : 01:34:20.864000000
FromStats_FrameCount                     : 135725
FromStats_StreamSize                     : 9490031937

Audio
ID                                       : 2
Format                                   : DTS
Format/Info                              : Digital Theater Systems
Mode                                     : 16
Format settings, Endianness              : Big
Codec ID                                 : A_DTS
Duration                                 : 1 h 34 min
Bit rate mode                            : Constant
Bit rate                                 : 1 509 kb/s
Channel(s)                               : 2 channels
Channel positions                        : Front: L R
Sampling rate                            : 48.0 kHz
Frame rate                               : 93.750 FPS (512 SPF)
Bit depth                                : 24 bits
Compression mode                         : Lossy
Stream size                              : 1 018 MiB (10%)
Language                                 : English
Default                                  : Yes
Forced                                   : No
Statistics Tags Issue                    : no_variable_data 1970-01-01 00:00:00 / no_variable_data 2010-02-22 21:41:29
FromStats_BitRate                        : 1508999
FromStats_Duration                       : 01:34:20.886000000
FromStats_FrameCount                     : 530708
FromStats_StreamSize                     : 1067784496

Text #1
ID                                       : 3
Format                                   : UTF-8
Codec ID                                 : S_TEXT/UTF8
Codec ID/Info                            : UTF-8 Plain Text
Language                                 : English
Default                                  : No
Forced                                   : No
Statistics Tags Issue                    : no_variable_data 1970-01-01 00:00:00 / no_variable_data 2010-02-22 21:41:29
FromStats_BitRate                        : 61
FromStats_Duration                       : 01:31:49.379000000
FromStats_FrameCount                     : 1322
FromStats_StreamSize                     : 42034

Text #2
ID                                       : 4
Format                                   : UTF-8
Codec ID                                 : S_TEXT/UTF8
Codec ID/Info                            : UTF-8 Plain Text
Title                                    : SDH
Language                                 : English
Default                                  : No
Forced                                   : No
Statistics Tags Issue                    : no_variable_data 1970-01-01 00:00:00 / no_variable_data 2010-02-22 21:41:29
FromStats_BitRate                        : 64
FromStats_Duration                       : 01:33:20.136000000
FromStats_FrameCount                     : 1497
FromStats_StreamSize                     : 44952

Menu
00:00:00.000                             : en:00:00:00.000
00:04:54.753                             : en:00:04:54.753
00:13:59.547                             : en:00:13:59.547
00:24:26.590                             : en:00:24:26.590
00:31:11.119                             : en:00:31:11.119
00:37:54.397                             : en:00:37:54.397
00:44:42.805                             : en:00:44:42.805
00:52:34.777                             : en:00:52:34.777
01:00:21.117                             : en:01:00:21.117
01:08:31.065                             : en:01:08:31.065
01:18:40.841                             : en:01:18:40.841
01:26:34.689                             : en:01:26:34.689



                                                                                                                                                                                                        
                                                                                                                                                                                                                                                                                                                                                                                                                                                                                                                                                                                                                                                                                                                                                                                                                                                        
32305ec39d27bcddb081369476ef4ff5.torrent (99.27 KB)

回复

使用道具 举报

您需要登录后才可以回帖 登录 | 立即注册

本版积分规则

磁力链接吧  |网站地图

本网站所有资源来自网络,如无意中侵犯了您的权益,请发邮件至 804136696@qq.com,立即清除相关链接

GMT+8, 2019-8-22 21:47 , Processed in 0.105041 second(s), 29 queries .

Powered by Discuz! X3.2

© 2001-2013 Comsenz Inc.

快速回复 返回顶部 返回列表