请选择 进入手机版 | 继续访问电脑版

磁力吧

 找回密码
 立即注册

弗林特/谍报飞龙 Our.Man.Flint.1966.1080p.BluRay.x264-PSYCHD 7.65GB

[复制链接]

磁力链接 发表于 2019-7-11 11:20:09 | 显示全部楼层 |阅读模式




帖子完整标题:弗林特/谍报飞龙 Our.Man.Flint.1966.1080p.BluRay.x264-PSYCHD 7.65GB




◎译  名 弗林特 / 谍报飞龙 / 谍海飞龙
◎片  名 Our Man Flint
◎年  代 1966
◎产  地 美国
◎类  别 喜剧 / 动作 / 科幻 / 奇幻 / 冒险
◎语  言 英语 / 意大利语
◎上映日期 1966-01-16
◎片  长 108分钟
◎导  演 丹尼尔·曼 Daniel Mann
◎编  剧 Hal Fimberg / 本·斯塔尔 Ben Starr
◎主  演 James Coburn
      Lee J. Cobb
      Gila Golan


◎标  签 特工 | 动作 | 美国 | 喜剧 | 间谍 | 美国电影 | 1966 | 老片

◎简  介  

  这是一部仿照007系列影片拍摄的侦探片。为了争取对世界的控制权,敌国采用控制大气环境的方法,对冰山的融化、火山的催发都运用得得心应手,以此改变世界的气候条件,来达到控制世界的目的。海湾处在非常危急的关头,需要寻找一位能够执行艰巨任务的间谍。在所有的推荐名单上都有弗林顿的名字,说明在人们心目中不辱使命者非他莫属。代号0008的弗林顿凭借一枚射向他的毒镖的成分配比,断定杀手来自马尔塞利斯,于是驾机前往,在那里与罗德尼一伙展开殊死较量,捣毁敌方总部,赢得了胜利。在好来坞卖座电影排行榜中,本片位居1966年排行前十名,又列入科幻电影全球票房排行100名。
Video
ID                                       : 1
Format                                   : AVC
Format/Info                              : Advanced Video Codec
Format settings, CABAC                   : Yes
Format settings, ReFrames                : 5 frames
Codec ID                                 : V_MPEG4/ISO/AVC
Duration                                 : 1 h 47 min
Bit rate                                 : 9 398 kb/s
Width                                    : 1 920 pixels
Height                                   : 816 pixels
Display aspect ratio                     : 2.35:1
Frame rate mode                          : Constant
Frame rate                               : 23.976 (24000/1001) FPS
Color space                              : YUV
Chroma subsampling                       : 4:2:0
Bit depth                                : 8 bits
Scan type                                : Progressive
Bits/(Pixel*Frame)                       : 0.250
Stream size                              : 6.92 GiB (90%)
Writing library                          : x264 core 129 r2230 1cffe9f
Encoding settings                        : cabac=1 / ref=5 / deblock=1:0:0 / analyse=0x3:0x113 / me=umh / subme=8 / psy=1 / psy_rd=1.00:0.00 / mixed_ref=1 / me_range=16 / chroma_me=1 / trellis=1 / 8x8dct=1 / cqm=0 / deadzone=21,11 / fast_pskip=1 / chroma_qp_offset=-2 / threads=12 / lookahead_threads=2 / sliced_threads=0 / nr=0 / decimate=1 / interlaced=0 / bluray_compat=0 / constrained_intra=0 / bframes=3 / b_pyramid=2 / b_adapt=2 / b_bias=0 / direct=3 / weightb=1 / open_gop=0 / weightp=2 / keyint=240 / keyint_min=24 / scenecut=40 / intra_refresh=0 / rc_lookahead=50 / rc=2pass / mbtree=1 / bitrate=9398 / ratetol=1.0 / qcomp=0.60 / qpmin=0 / qpmax=69 / qpstep=4 / cplxblur=20.0 / qblur=0.5 / ip_ratio=1.40 / aq=1:1.00
Language                                 : English
Default                                  : Yes
Forced                                   : No

Audio
ID                                       : 2
Format                                   : DTS
Format/Info                              : Digital Theater Systems
Mode                                     : 16
Format settings, Endianness              : Big
Codec ID                                 : A_DTS
Duration                                 : 1 h 47 min
Bit rate mode                            : Constant
Bit rate                                 : 768 kb/s
Channel(s)                               : 6 channels
Channel(s)_Original                      : 1 channel
Channel positions                        : Front: C
Sampling rate                            : 48.0 kHz
Frame rate                               : 93.750 FPS (512 spf)
Bit depth                                : 24 bits
Compression mode                         : Lossy
Stream size                              : 592 MiB (8%)
Language                                 : English
Default                                  : Yes
Forced                                   : No

Menu
00:00:00.000                             : en:00:00:00.000
00:07:54.057                             : en:00:07:54.057
00:14:42.799                             : en:00:14:42.799
00:21:21.906                             : en:00:21:21.906
00:29:14.252                             : en:00:29:14.252
00:35:30.795                             : en:00:35:30.795
00:41:06.381                             : en:00:41:06.381
00:50:29.235                             : en:00:50:29.235
01:05:15.411                             : en:01:05:15.411
01:14:31.842                             : en:01:14:31.842
01:22:27.401                             : en:01:22:27.401
01:36:30.326                             : en:01:36:30.326



                                                                                                                                                                                                        
                                                                                                                                                                                                                                                                                                                                                                                                                                                                                                                                                                                                                                                                                                                                                                                                                                                        
813802327f0f89ef79d27ce6f28ba6c5.torrent (77.05 KB)

回复

使用道具 举报

您需要登录后才可以回帖 登录 | 立即注册

本版积分规则

磁力链接吧  |网站地图

本网站所有资源来自网络,如无意中侵犯了您的权益,请发邮件至 804136696@qq.com,立即清除相关链接

GMT+8, 2019-8-23 05:57 , Processed in 0.085367 second(s), 29 queries .

Powered by Discuz! X3.2

© 2001-2013 Comsenz Inc.

快速回复 返回顶部 返回列表