请选择 进入手机版 | 继续访问电脑版

磁力吧

 找回密码
 立即注册

珍妮的画像/倩影泪痕 Portrait.of.Jennie.1948.1080p.BluRay.x264-AMIABL...

[复制链接]

磁力链接 发表于 2019-7-11 11:20:09 | 显示全部楼层 |阅读模式



帖子完整标题:珍妮的画像/倩影泪痕 Portrait.of.Jennie.1948.1080p.BluRay.x264-AMIABLE 8.80GB




◎译  名 珍妮的画像 / 倩影泪痕
◎片  名 Portrait of Jennie
◎年  代 1948
◎产  地 美国
◎类  别 剧情 / 爱情 / 悬疑 / 奇幻
◎语  言 英语
◎上映日期 1949-04-22
◎IMDb评分  7.7/10 from 5655 users
◎片  长 86 分钟
◎导  演 威廉·迪亚特尔 William Dieterle
◎编  剧 Ben Hecht / 大卫·O·塞尔兹尼克 David O. Selznick / Leonardo Bercovici
◎主  演 珍妮弗·琼斯 Jennifer Jones
      约瑟夫·科顿 Joseph Cotten
      埃塞尔·巴里摩尔 Ethel Barrymore


◎标  签 美国 | 爱情 | 美国电影 | 三毛 | 经典 | 黑白片 | 1940s | 文艺

◎简  介  

  艾本(约瑟夫·科顿 Joseph Cotten 饰)是一名画家,靠着自己的勤奋和努力生存,然而,那个时代实在是太萧条了,所以艾本始终活在濒临破产的边缘。某日,画家偶然中遇见了一位名为珍妮(珍妮弗·琼斯 Jennifer Jones 饰)的女孩,艾本为珍妮画了一张速写,让他没有想到的是,这张速写被画廊老板相中,并交代他再画一些这样的画。
之后,艾本和珍妮断断续续的见着面,画家以她为模特创作出了一幅又一幅作品,随着时间的推移,艾本和珍妮之间渐渐产生了一种奇妙的羁绊。珍妮长大了,艾本所画的一副珍妮的肖像油画被博物馆收藏了,他的生活亦渐渐得到了改善。可是,与此同时,珍妮却消失了。

◎获奖情况  

  第21届奥斯卡金像奖(1949)
  黑白片最佳摄影(提名) Joseph H. August
  最佳特效 Russell Shearman / James G. Stewart / Paul Eagler / J·麦克米伦·约翰逊 / Clarence Slifer / Charles L. Freeman

  第10届威尼斯电影节(1949)
  主竞赛单元 金狮奖 (提名) 威廉·迪亚特尔
  国际奖 最佳男演员 约瑟夫·科顿


Video
ID                                       : 1
Format                                   : AVC
Format/Info                              : Advanced Video Codec
Format settings, CABAC                   : Yes
Format settings, ReFrames                : 5 frames
Codec ID                                 : V_MPEG4/ISO/AVC
Duration                                 : 1h 26mn
Bit rate                                 : 13.0 Mbps
Width                                    : 1 440 pixels
Height                                   : 1 080 pixels
Display aspect ratio                     : 4:3
Frame rate mode                          : Constant
Frame rate                               : 23.976 (24000/1001) fps
Color space                              : YUV
Chroma subsampling                       : 4:2:0
Bit depth                                : 8 bits
Scan type                                : Progressive
Bits/(Pixel*Frame)                       : 0.349
Stream size                              : 7.66 GiB (88%)
Writing library                          : x264 core 152 r2851 ba24899
Encoding settings                        : cabac=1 / ref=5 / deblock=1:-3:-3 / analyse=0x3:0x113 / me=umh / subme=8 / psy=1 / psy_rd=1.10:0.00 / mixed_ref=1 / me_range=32 / chroma_me=1 / trellis=2 / 8x8dct=1 / cqm=0 / deadzone=21,11 / fast_pskip=1 / chroma_qp_offset=-2 / threads=24 / lookahead_threads=4 / sliced_threads=0 / nr=0 / decimate=1 / interlaced=0 / bluray_compat=0 / constrained_intra=0 / bframes=3 / b_pyramid=2 / b_adapt=2 / b_bias=0 / direct=3 / weightb=1 / open_gop=0 / weightp=2 / keyint=240 / keyint_min=24 / scenecut=40 / intra_refresh=0 / rc_lookahead=50 / rc=2pass / mbtree=1 / bitrate=13000 / ratetol=1.0 / qcomp=0.60 / qpmin=0 / qpmax=69 / qpstep=4 / cplxblur=20.0 / qblur=0.5 / ip_ratio=1.40 / aq=3:0.70
Default                                  : Yes
Forced                                   : No
Statistics Tags Issue                    : no_variable_data 1970-01-01 00:00:00 / no_variable_data 2010-02-22 21:41:29
FromStats_BitRate                        : 13001596
FromStats_Duration                       : 01:26:16.046000000
FromStats_FrameCount                     : 124101
FromStats_StreamSize                     : 8412107940

Audio
ID                                       : 2
Format                                   : DTS
Format/Info                              : Digital Theater Systems
Mode                                     : 16
Format settings, Endianness              : Big
Codec ID                                 : A_DTS
Duration                                 : 1h 26mn
Bit rate mode                            : Constant
Bit rate                                 : 1 509 Kbps
Channel(s)                               : 6 channels
Channel positions                        : Front: L C R, Side: L R, LFE
Sampling rate                            : 48.0 KHz
Frame rate                               : 93.750 fps (512 spf)
Bit depth                                : 24 bits
Compression mode                         : Lossy
Stream size                              : 932 MiB (10%)
Language                                 : English
Default                                  : Yes
Forced                                   : No
Statistics Tags Issue                    : no_variable_data 1970-01-01 00:00:00 / no_variable_data 2010-02-22 21:41:29
FromStats_BitRate                        : 1509000
FromStats_Duration                       : 01:26:20.192000000
FromStats_FrameCount                     : 485643
FromStats_StreamSize                     : 977113716

Text
ID                                       : 3
Format                                   : UTF-8
Codec ID                                 : S_TEXT/UTF8
Codec ID/Info                            : UTF-8 Plain Text
Language                                 : English
Default                                  : No
Forced                                   : No
Statistics Tags Issue                    : no_variable_data 1970-01-01 00:00:00 / no_variable_data 2010-02-22 21:41:29
FromStats_BitRate                        : 79
FromStats_Duration                       : 01:24:25.352000000
FromStats_FrameCount                     : 1212
FromStats_StreamSize                     : 50180

Menu
00:00:00.000                             : en:00:00:00.000
00:11:19.555                             : en:00:11:19.555
00:20:42.910                             : en:00:20:42.910
00:33:20.667                             : en:00:33:20.667
00:46:21.321                             : en:00:46:21.321
01:00:31.504                             : en:01:00:31.504
01:08:44.914                             : en:01:08:44.914
01:21:09.658                             : en:01:21:09.658



                                                                                                                                                                                                        
                                                                                                                                                                                                                                                                                                                                                                                                                                                                                                                                                                                                                                                                                                                                                                                                                                                        
95e624f70c9371ad13fa467c4e426b94.torrent (88.96 KB)

回复

使用道具 举报

您需要登录后才可以回帖 登录 | 立即注册

本版积分规则

磁力链接吧  |网站地图

本网站所有资源来自网络,如无意中侵犯了您的权益,请发邮件至 804136696@qq.com,立即清除相关链接

GMT+8, 2019-8-19 13:24 , Processed in 0.087868 second(s), 29 queries .

Powered by Discuz! X3.2

© 2001-2013 Comsenz Inc.

快速回复 返回顶部 返回列表