请选择 进入手机版 | 继续访问电脑版

磁力吧

 找回密码
 立即注册

碧血蓝勋/蓝勋飞行员 The.Blue.Max.1966.1080p.BluRay.x264-PSYCHD 10.94GB

[复制链接]

磁力链接 发表于 2019-7-11 11:20:09 | 显示全部楼层 |阅读模式



帖子完整标题:碧血蓝勋/蓝勋飞行员 The.Blue.Max.1966.1080p.BluRay.x264-PSYCHD 10.94GB




◎译  名 碧血蓝勋 / 蓝勋飞行员
◎片  名 The Blue Max
◎年  代 1966
◎产  地 英国
◎类  别 剧情 / 动作 / 战争 / 冒险
◎语  言 英语
◎上映日期 1966-06-21
◎IMDb评分  7.1/10 from 5908 users
◎片  长 156 分钟
◎导  演 约翰·吉勒明 John Guillermin
◎编  剧 本·巴尔兹曼 Ben Barzman
◎主  演 George Peppard
      James Mason
      Ursula Andress
      Jeremy Kemp


◎标  签 战争 | 空战 | 一战 | 英国 | 剧情 | 英国电影 | 德国 | 1966

◎简  介  

  1918年,德军在英法前线正战事吃紧的时候,毕业于104飞行学校、只有过两年陆军经历的什塔赫尔中尉来到了威利上尉的飞行中队。虽然出身卑微,但视荣誉高于生命的他在第一次执行攻击任务中就击落英军飞机一架,只是被击落的飞机没有得到陆军的确认,什塔赫尔的首功遭到了包括威利在内的所有队员的怀疑。而真正和威利结下恩怨,是在什塔赫尔迫降一架英军战斗机时,开枪打死了企图反抗的僚机射手却被威利指责成用血腥的手段对付无助的敌人。
威利上尉与什塔赫尔为难,实则出于对什塔赫尔直逼自己战功的妒忌。但什塔赫尔的战功并没有因为威利的妒忌而停止不前。相反,什塔赫尔击落的飞机数逐渐追上了威利上尉由此而获得最高荣誉--空军蓝色勋章的战功:击落敌机二十架。为此,什塔赫尔凭借其英勇和战功受到了空军将军以及柏林方面的褒奖,并被当作英雄人物在德国民众中广泛宣传。这期间,什塔赫尔与空军将军的年轻夫人结识后还产生了一段暧昧关系。
什塔赫尔作为帝国英雄从柏林返回中队后,威利上尉的妒忌达到了顶点。不幸的是,在威利自己挑起的飞行技术较量中,威利坠机身亡。威利的死让接任的奥托上尉决定把什塔赫尔送上军事法庭追究责任。而空军将军接到报告后对此却有不同的看法。什塔赫尔因击落飞机二十架而被授予蓝色勋章那天,陆军元帅得到关于威利事件的报告后下令把什塔赫尔逮捕起来。为了维护空军的骄傲和保全什塔赫尔个人的荣誉,将军把什塔赫尔送上了明知存在着严重缺陷的新型战机,而他再也没有活着回来。
Video
ID                                       : 1
Format                                   : AVC
Format/Info                              : Advanced Video Codec
Format settings, CABAC                   : Yes
Format settings, ReFrames                : 5 frames
Codec ID                                 : V_MPEG4/ISO/AVC
Duration                                 : 2 h 35 min
Bit rate                                 : 9 286 kb/s
Width                                    : 1 920 pixels
Height                                   : 816 pixels
Display aspect ratio                     : 2.35:1
Frame rate mode                          : Constant
Frame rate                               : 23.976 (24000/1001) FPS
Color space                              : YUV
Chroma subsampling                       : 4:2:0
Bit depth                                : 8 bits
Scan type                                : Progressive
Bits/(Pixel*Frame)                       : 0.247
Stream size                              : 9.88 GiB (90%)
Writing library                          : x264 core 133 r2334 a3ac64b
Encoding settings                        : cabac=1 / ref=5 / deblock=1:-3:-3 / analyse=0x3:0x113 / me=umh / subme=8 / psy=1 / psy_rd=1.00:0.00 / mixed_ref=1 / me_range=16 / chroma_me=1 / trellis=1 / 8x8dct=1 / cqm=0 / deadzone=21,11 / fast_pskip=1 / chroma_qp_offset=-2 / threads=12 / lookahead_threads=2 / sliced_threads=0 / nr=0 / decimate=1 / interlaced=0 / bluray_compat=0 / constrained_intra=0 / bframes=3 / b_pyramid=2 / b_adapt=2 / b_bias=0 / direct=3 / weightb=1 / open_gop=0 / weightp=2 / keyint=240 / keyint_min=24 / scenecut=40 / intra_refresh=0 / rc_lookahead=50 / rc=2pass / mbtree=1 / bitrate=9286 / ratetol=1.0 / qcomp=0.60 / qpmin=0 / qpmax=69 / qpstep=4 / cplxblur=20.0 / qblur=0.5 / ip_ratio=1.40 / aq=1:1.00
Language                                 : English
Default                                  : Yes
Forced                                   : No

Audio
ID                                       : 2
Format                                   : DTS
Format/Info                              : Digital Theater Systems
Mode                                     : 16
Format settings, Endianness              : Big
Codec ID                                 : A_DTS
Duration                                 : 2 h 35 min
Bit rate mode                            : Constant
Bit rate                                 : 768 kb/s
Channel(s)                               : 6 channels
Channel(s)_Original                      : 2 channels
Channel positions                        : Front: L R
Sampling rate                            : 48.0 kHz
Frame rate                               : 93.750 FPS (512 spf)
Bit depth                                : 24 bits
Compression mode                         : Lossy
Stream size                              : 855 MiB (8%)
Language                                 : English
Default                                  : Yes
Forced                                   : No

Menu
00:00:00.000                             : en:00:00:00.000
00:13:29.017                             : en:00:13:29.017
00:25:37.202                             : en:00:25:37.202
00:33:18.496                             : en:00:33:18.496
00:44:04.725                             : en:00:44:04.725
00:55:36.542                             : en:00:55:36.542
01:06:19.392                             : en:01:06:19.392
01:20:13.183                             : en:01:20:13.183
01:32:32.380                             : en:01:32:32.380
01:46:13.492                             : en:01:46:13.492
02:03:00.582                             : en:02:03:00.582
02:18:36.141                             : en:02:18:36.141



                                                                                                                                                                                                        
                                                                                                                                                                                                                                                                                                                                                                                                                                                                                                                                                                                                                                                                                                                                                                                                                                                        
ed29876191bf78a0d5fc7175bdc5cec5.torrent (55.19 KB)

回复

使用道具 举报

您需要登录后才可以回帖 登录 | 立即注册

本版积分规则

磁力链接吧  |网站地图

本网站所有资源来自网络,如无意中侵犯了您的权益,请发邮件至 804136696@qq.com,立即清除相关链接

GMT+8, 2019-8-19 14:00 , Processed in 0.088125 second(s), 29 queries .

Powered by Discuz! X3.2

© 2001-2013 Comsenz Inc.

快速回复 返回顶部 返回列表