请选择 进入手机版 | 继续访问电脑版

磁力吧

 找回密码
 立即注册

鸳鸯谱/分离的桌子 Separate.Tables.1958.1080p.BluRay.x264-HD4U 7.65GB

[复制链接]

磁力链接 发表于 2019-7-11 11:20:09 | 显示全部楼层 |阅读模式



帖子完整标题:鸳鸯谱/分离的桌子 Separate.Tables.1958.1080p.BluRay.x264-HD4U 7.65GB




◎译  名 鸳鸯谱 / 分离的桌子
◎片  名 Separate Tables
◎年  代 1958
◎产  地 美国
◎类  别 剧情 / 爱情
◎语  言 英语
◎上映日期 1958-12-18
◎IMDb评分  7.5/10 from 5959 users
◎片  长 100 分钟
◎导  演 德尔伯特·曼 Delbert Mann
◎编  剧 约翰·盖 John Gay (II) / 约翰·迈克尔·海耶斯 John Michael Hayes / 泰伦斯·拉提根 Terence Rattigan
◎主  演 大卫·尼文 David Niven
      黛博拉·蔻儿 Deborah Kerr
      温蒂·希勒 Wendy Hiller
      伯特·兰卡斯特 Burt Lancaster
      丽塔·海华斯 Rita Hayworth


◎标  签 美国 | 1958 | DeborahKerr | 美国电影 | 爱情 | 剧情 | Rita_Hayworth | Burt_Lancaster

◎简  介  

  It's the off-season at the lonely Beauregard Hotel in Bournemoth, and only the long-term tenants are still in residence. Life at the Beauregard is stirred up, however, when the beautiful Ann Shankland arrives to see her alcoholic ex-husband, John Malcolm, who is secretly engaged to Pat Cooper, the woman who runs the hotel. Meanwhile, snobbish Mrs Railton-Bell discovers that the kindly if rather doddering Major Pollock is not what he appears to be. The news is particularly shocking for her frail daughter, Sibyl, who is secretly in love with the Major.

◎获奖情况  

  第31届奥斯卡金像奖(1959)
  最佳影片(提名) 哈罗德·赫克特
  最佳男主角 大卫·尼文
  最佳女主角(提名) 黛博拉·蔻儿
  最佳女配角 温蒂·希勒
  最佳改编剧本(提名) 约翰·盖伊 / 泰伦斯·拉提根
  黑白片最佳摄影(提名) 查尔斯·朗
  剧情/喜剧片最佳配乐(提名) David Raksin


Video
ID                                       : 1
Format                                   : AVC
Format/Info                              : Advanced Video Codec
Format settings                          : CABAC / 4 Ref Frames
Format settings, CABAC                   : Yes
Format settings, ReFrames                : 4 frames
Codec ID                                 : V_MPEG4/ISO/AVC
Duration                                 : 1 h 39 min
Bit rate                                 : 9 461 kb/s
Width                                    : 1 792 pixels
Height                                   : 1 080 pixels
Display aspect ratio                     : 5:3
Frame rate mode                          : Constant
Frame rate                               : 23.976 FPS
Color space                              : YUV
Chroma subsampling                       : 4:2:0
Bit depth                                : 8 bits
Scan type                                : Progressive
Bits/(Pixel*Frame)                       : 0.204
Stream size                              : 6.45 GiB (84%)
Writing library                          : x264 core 142 r2431 ac76440
Encoding settings                        : cabac=1 / ref=4 / deblock=1:0:0 / analyse=0x3:0x133 / me=umh / subme=7 / psy=1 / psy_rd=1.00:0.00 / mixed_ref=1 / me_range=16 / chroma_me=1 / trellis=1 / 8x8dct=1 / cqm=0 / deadzone=21,11 / fast_pskip=0 / chroma_qp_offset=-2 / threads=18 / lookahead_threads=3 / sliced_threads=0 / nr=0 / decimate=1 / interlaced=0 / bluray_compat=0 / constrained_intra=0 / bframes=3 / b_pyramid=2 / b_adapt=1 / b_bias=0 / direct=1 / weightb=1 / open_gop=0 / weightp=2 / keyint=250 / keyint_min=23 / scenecut=40 / intra_refresh=0 / rc_lookahead=40 / rc=2pass / mbtree=1 / bitrate=9461 / ratetol=1.0 / qcomp=0.60 / qpmin=0 / qpmax=69 / qpstep=4 / cplxblur=20.0 / qblur=0.5 / ip_ratio=1.40 / aq=1:1.00
Language                                 : English
Default                                  : Yes
Forced                                   : No

Audio
ID                                       : 2
Format                                   : DTS
Format/Info                              : Digital Theater Systems
Codec ID                                 : A_DTS
Duration                                 : 1 h 39 min
Bit rate mode                            : Constant
Bit rate                                 : 1 509 kb/s
Channel(s)                               : 2 channels
Channel positions                        : Front: L R
Sampling rate                            : 48.0 kHz
Frame rate                               : 93.750 FPS (512 SPF)
Bit depth                                : 24 bits
Compression mode                         : Lossy
Stream size                              : 1.05 GiB (14%)
Language                                 : English
Default                                  : Yes
Forced                                   : No

Menu
00:00:00.000                             : en:00:00:00.000
00:09:26.608                             : en:00:09:26.608
00:16:32.658                             : en:00:16:32.658
00:28:54.858                             : en:00:28:54.858
00:42:18.286                             : en:00:42:18.286
01:00:01.473                             : en:01:00:01.473
01:07:12.237                             : en:01:07:12.237
01:29:35.537                             : en:01:29:35.537



                                                                                                                                                                                                        
                                                                                                                                                                                                                                                                                                                                                                                                                                                                                                                                                                                                                                                                                                                                                                                                                                                        
4fe7ca30a34c8bd32048ce7296f8a344.torrent (77.01 KB)

回复

使用道具 举报

您需要登录后才可以回帖 登录 | 立即注册

本版积分规则

磁力链接吧  |网站地图

本网站所有资源来自网络,如无意中侵犯了您的权益,请发邮件至 804136696@qq.com,立即清除相关链接

GMT+8, 2019-8-22 22:34 , Processed in 0.094506 second(s), 29 queries .

Powered by Discuz! X3.2

© 2001-2013 Comsenz Inc.

快速回复 返回顶部 返回列表