请选择 进入手机版 | 继续访问电脑版

磁力吧

 找回密码
 立即注册

怒河春醒/大河 The.River.1984.REMASTERED.1080p.BluRay.x264-GUACAMOLE 8.74GB

[复制链接]

磁力吧 发表于 2019-7-10 11:12:13 | 显示全部楼层 |阅读模式




帖子完整标题:怒河春醒/大河 The.River.1984.REMASTERED.1080p.BluRay.x264-GUACAMOLE 8.74GB




◎译  名 怒河春醒 / 大河
◎片  名 The River
◎年  代 1984
◎产  地 美国
◎类  别 剧情
◎语  言 英语
◎上映日期 1984-12-19
◎IMDb评分  6.3/10 from 5879 users
◎片  长 122 分钟
◎导  演 马克·雷戴尔 Mark Rydell
◎编  剧 Julian Barry (I) / Robert Dillon (III)
◎主  演 梅尔·吉布森 Mel Gibson
      茜茜·斯派塞克 Sissy Spacek
      Shane Bailey


◎标  签 美国 | 剧情 | 梅尔·吉布森 | 1984 | 美国电影 | 1980s | MarkRydell | 美國

◎简  介  

  梅尔·吉布森扮演的农场主为了保住自己辛苦耕耘的农场,与妻子一道同大自然、银行家、土地开发商展开了一场激烈的斗争……这是一部催人上进的影片。

◎获奖情况  

  第57届奥斯卡金像奖(1985)
  最佳女主角(提名) 茜茜·斯派塞克
  最佳摄影(提名) 维尔莫什·日格蒙德
  最佳音响(提名) 理查德·波特曼 / Nick Alphin / 罗伯特·瑟尔威尔 / David M. Ronne
  最佳原创配乐(提名) 约翰·威廉姆斯
  特别成就奖 Kay Rose


Video
ID                                       : 1
Format                                   : AVC
Format/Info                              : Advanced Video Codec
Format settings                          : CABAC / 4 Ref Frames
Format settings, CABAC                   : Yes
Format settings, RefFrames               : 4 frames
Codec ID                                 : V_MPEG4/ISO/AVC
Duration                                 : 2 h 3 min
Bit rate                                 : 9 347 kb/s
Width                                    : 1 920 pixels
Height                                   : 1 040 pixels
Display aspect ratio                     : 1.85:1
Frame rate mode                          : Constant
Frame rate                               : 23.976 (24000/1001) FPS
Color space                              : YUV
Chroma subsampling                       : 4:2:0
Bit depth                                : 8 bits
Scan type                                : Progressive
Bits/(Pixel*Frame)                       : 0.195
Stream size                              : 8.07 GiB (92%)
Writing library                          : x264 core 155 r2901 7d0ff22
Encoding settings                        : cabac=1 / ref=4 / deblock=1:0:0 / analyse=0x3:0x113 / me=umh / subme=8 / psy=1 / psy_rd=1.00:0.00 / mixed_ref=1 / me_range=16 / chroma_me=1 / trellis=2 / 8x8dct=1 / cqm=0 / deadzone=21,11 / fast_pskip=0 / chroma_qp_offset=-2 / threads=12 / lookahead_threads=2 / sliced_threads=0 / nr=0 / decimate=1 / interlaced=0 / bluray_compat=0 / constrained_intra=0 / bframes=3 / b_pyramid=2 / b_adapt=1 / b_bias=0 / direct=1 / weightb=1 / open_gop=0 / weightp=2 / keyint=250 / keyint_min=23 / scenecut=40 / intra_refresh=0 / rc_lookahead=50 / rc=2pass / mbtree=1 / bitrate=9347 / ratetol=1.0 / qcomp=0.60 / qpmin=0 / qpmax=69 / qpstep=4 / cplxblur=20.0 / qblur=0.5 / ip_ratio=1.40 / aq=1:1.00
Default                                  : Yes
Forced                                   : No

Audio
ID                                       : 2
Format                                   : DTS
Format/Info                              : Digital Theater Systems
Mode                                     : 16
Format settings, Endianness              : Big
Codec ID                                 : A_DTS
Duration                                 : 2 h 3 min
Bit rate mode                            : Constant
Bit rate                                 : 768 kb/s
Channel(s)                               : 6 channels
Channel positions                        : Front: L C R, Side: L R, LFE
Sampling rate                            : 48.0 kHz
Frame rate                               : 93.750 FPS (512 SPF)
Bit depth                                : 24 bits
Compression mode                         : Lossy
Stream size                              : 680 MiB (8%)
Language                                 : English
Default                                  : Yes
Forced                                   : No



                                                                                                                                                                                                        
                                                                                                                                                                                                                                                                                                                                                                                                                                                                                                                                                                                                                                                                                                                                                                                                                                                        
6a0ec6b67bc6bdb033f693908810b6aa.torrent (88.11 KB)

回复

使用道具 举报

您需要登录后才可以回帖 登录 | 立即注册

本版积分规则

磁力链接吧  |网站地图

本网站所有资源来自网络,如无意中侵犯了您的权益,请发邮件至 804136696@qq.com,立即清除相关链接

GMT+8, 2019-8-19 13:47 , Processed in 0.094314 second(s), 29 queries .

Powered by Discuz! X3.2

© 2001-2013 Comsenz Inc.

快速回复 返回顶部 返回列表