请选择 进入手机版 | 继续访问电脑版

磁力吧

 找回密码
 立即注册

球探 The.Scout.1994.1080p.BluRay.x264-Japhson 6.55GB

[复制链接]

磁力链接 发表于 2019-7-10 11:12:13 | 显示全部楼层 |阅读模式




帖子完整标题:球探 The.Scout.1994.1080p.BluRay.x264-Japhson 6.55GB




◎译  名 球探
◎片  名 The Scout
◎年  代 1994
◎产  地 美国
◎类  别 剧情 / 喜剧 / 运动
◎语  言 英语
◎上映日期 1994-09-30
◎IMDb评分  5.3/10 from 5577 users
◎片  长 101 分钟
◎导  演 Michael Ritchie
◎编  剧 安德鲁·伯格曼 Andrew Bergman
◎主  演 Albert Brooks
      Brendan Fraser
      Dianne Wiest


◎标  签 美国电影 | CCTV6 | 美国 | 电影 | 剧情 | 体育 | The | Scout

◎简  介  

  Al Percolo is a major league baseball scout sent to scout in Mexico as a punishment. However, he eventually stumbles across Steve Nebraska, a young American who can pitch AND hit better than anyone else can do either. He signs Steve and returns home in glory. It soon becomes obvious, though, that Steve is immature and possibly unstable, and Al turns to psychiatrist Doctor H. Aaron, whom he picks for her name, for help.
Video
ID                                       : 1
Format                                   : AVC
Format/Info                              : Advanced Video Cod
Format settings, CABAC                   : Yes
Format settings, ReFrames                : 4 frames
Muxing mode                              : Header stripping
Codec ID                                 : V_MPEG4/ISO/AVC
Duration                                 : 1 h 41 min
Bit rate                                 : 8 568 kb/s
Width                                    : 1 920 pixels
Height                                   : 1 040 pixels
Display aspect ratio                     : 1.85:1
Frame rate mode                          : Constant
Frame rate                               : 23.976 (24000/1001) FPS
Color space                              : YUV
Chroma subsampling                       : 4:2:0
Bit depth                                : 8 bits
Scan type                                : Progressive
Bits/(Pixel*Frame)                       : 0.179
Stream size                              : 5.96 GiB (91%)
Writing library                          : x264 core 120 r2145 748fe16
Encoding settings                        : cabac=1 / ref=4 / deblock=1:-1:-1 / analyse=0x3:0x113 / me=umh / subme=7 / psy=1 / psy_rd=1.00:0.00 / mixed_ref=1 / me_range=16 / chroma_me=1 / trellis=1 / 8x8dct=1 / cqm=0 / deadzone=21,11 / fast_pskip=1 / chroma_qp_offset=-2 / threads=12 / sliced_threads=0 / nr=0 / decimate=1 / interlaced=0 / bluray_compat=0 / constrained_intra=0 / bframes=3 / b_pyramid=2 / b_adapt=2 / b_bias=0 / direct=3 / weightb=1 / open_gop=0 / weightp=2 / keyint=250 / keyint_min=23 / scenecut=40 / intra_refresh=0 / rc_lookahead=40 / rc=2pass / mbtree=1 / bitrate=8568 / ratetol=1.0 / qcomp=0.60 / qpmin=0 / qpmax=69 / qpstep=4 / cplxblur=20.0 / qblur=0.5 / vbv_maxrate=50000 / vbv_bufsize=50000 / nal_hrd=none / ip_ratio=1.40 / aq=1:1.00
Language                                 : English
Default                                  : Yes
Forced                                   : Yes

Audio
ID                                       : 2
Format                                   : AC-3
Format/Info                              : Audio Coding 3
Format settings, Endianness              : Big
Muxing mode                              : Header stripping
Codec ID                                 : A_AC3
Duration                                 : 1 h 41 min
Bit rate mode                            : Constant
Bit rate                                 : 640 kb/s
Channel(s)                               : 6 channels
Channel positions                        : Front: L C R, Side: L R, LFE
Sampling rate                            : 48.0 kHz
Frame rate                               : 31.250 FPS (1536 spf)
Bit depth                                : 16 bits
Compression mode                         : Lossy
Stream size                              : 466 MiB (7%)
Language                                 : English
Service kind                             : Complete Main
Default                                  : Yes
Forced                                   : Yes



                                                                                                                                                                                                        
                                                                                                                                                                                                                                                                                                                                                                                                                                                                                                                                                                                                                                                                                                                                                                                                                                                        
2b0a68bdb97768fda5db2e9e2e7f915b.torrent (65.99 KB)

回复

使用道具 举报

您需要登录后才可以回帖 登录 | 立即注册

本版积分规则

磁力链接吧  |网站地图

本网站所有资源来自网络,如无意中侵犯了您的权益,请发邮件至 804136696@qq.com,立即清除相关链接

GMT+8, 2019-8-19 14:53 , Processed in 0.084197 second(s), 29 queries .

Powered by Discuz! X3.2

© 2001-2013 Comsenz Inc.

快速回复 返回顶部 返回列表