请选择 进入手机版 | 继续访问电脑版

磁力吧

 找回密码
 立即注册

西域枪神/荒漠之虎 Wild.Bill.1995.1080p.BluRay.x264-SADPANDA 7.65GB

[复制链接]

磁力链接 发表于 2019-7-10 11:12:13 | 显示全部楼层 |阅读模式



帖子完整标题:西域枪神/荒漠之虎 Wild.Bill.1995.1080p.BluRay.x264-SADPANDA 7.65GB




◎译  名 西域枪神 / 荒漠之虎 / 野牛比尔
◎片  名 Wild Bill
◎年  代 1995
◎产  地 美国
◎类  别 动作 / 传记 / 西部
◎语  言 英语 / Sioux / 粤语
◎上映日期 1995-12-01
◎IMDb评分  5.9/10 from 5889 users
◎片  长 98 分钟
◎导  演 沃尔特·希尔 Walter Hill
◎编  剧 沃尔特·希尔 Walter Hill
◎主  演 杰夫·布里吉斯 Jeff Bridges
      艾伦·巴金 Ellen Barkin
      约翰·赫特 John Hurt


◎标  签 西部 | 美国 | JohnHurt | 杰夫·布里吉斯 | 1990s | Walter_Hill | HBO | 西部片

◎简  介  

  暂无相关剧情介绍
Video
ID                                       : 1
Format                                   : AVC
Format/Info                              : Advanced Video Codec
Format settings                          : CABAC / 4 Ref Frames
Format settings, CABAC                   : Yes
Format settings, RefFrames               : 4 frames
Codec ID                                 : V_MPEG4/ISO/AVC
Duration                                 : 1 h 37 min
Bit rate                                 : 9 669 kb/s
Width                                    : 1 920 pixels
Height                                   : 1 040 pixels
Display aspect ratio                     : 1.85:1
Frame rate mode                          : Constant
Frame rate                               : 23.976 (24000/1001) FPS
Color space                              : YUV
Chroma subsampling                       : 4:2:0
Bit depth                                : 8 bits
Scan type                                : Progressive
Bits/(Pixel*Frame)                       : 0.202
Stream size                              : 6.61 GiB (86%)
Writing library                          : x264 core 152 r2851 ba24899
Encoding settings                        : cabac=1 / ref=4 / deblock=1:-3:-3 / analyse=0x3:0x113 / me=umh / subme=8 / psy=1 / psy_rd=1.00:0.25 / mixed_ref=1 / me_range=24 / chroma_me=1 / trellis=1 / 8x8dct=1 / cqm=0 / deadzone=21,11 / fast_pskip=1 / chroma_qp_offset=-4 / threads=30 / lookahead_threads=5 / sliced_threads=0 / nr=0 / decimate=1 / interlaced=0 / bluray_compat=0 / constrained_intra=0 / bframes=3 / b_pyramid=2 / b_adapt=1 / b_bias=0 / direct=3 / weightb=1 / open_gop=0 / weightp=2 / keyint=240 / keyint_min=24 / scenecut=40 / intra_refresh=0 / rc_lookahead=50 / rc=2pass / mbtree=1 / bitrate=9669 / ratetol=1.0 / qcomp=0.60 / qpmin=0 / qpmax=69 / qpstep=4 / cplxblur=20.0 / qblur=0.5 / ip_ratio=1.40 / aq=1:0.75
Default                                  : Yes
Forced                                   : No

Audio
ID                                       : 2
Format                                   : DTS
Format/Info                              : Digital Theater Systems
Mode                                     : 16
Format settings, Endianness              : Big
Codec ID                                 : A_DTS
Duration                                 : 1 h 37 min
Bit rate mode                            : Constant
Bit rate                                 : 1 509 kb/s
Channel(s)                               : 6 channels
Channel positions                        : Front: L C R, Side: L R, LFE
Sampling rate                            : 48.0 kHz
Frame rate                               : 93.750 FPS (512 SPF)
Bit depth                                : 24 bits
Compression mode                         : Lossy
Stream size                              : 1.03 GiB (14%)
Language                                 : English
Default                                  : Yes
Forced                                   : No

Menu
00:00:00.000                             : en:00:00:00.000
00:04:45.869                             : en:00:04:45.869
00:08:54.367                             : en:00:08:54.367
00:11:31.065                             : en:00:11:31.065
00:16:09.969                             : en:00:16:09.969
00:19:46.685                             : en:00:19:46.685
00:25:11.885                             : en:00:25:11.885
00:28:24.328                             : en:00:28:24.328
00:31:11.495                             : en:00:31:11.495
00:34:43.748                             : en:00:34:43.748
00:40:57.330                             : en:00:40:57.330
00:46:31.872                             : en:00:46:31.872
00:49:01.188                             : en:00:49:01.188
00:52:58.759                             : en:00:52:58.759
00:58:29.673                             : en:00:58:29.673
01:01:51.875                             : en:01:01:51.875
01:07:15.490                             : en:01:07:15.490
01:10:57.170                             : en:01:10:57.170
01:14:02.229                             : en:01:14:02.229
01:18:20.487                             : en:01:18:20.487
01:21:21.460                             : en:01:21:21.460
01:26:42.781                             : en:01:26:42.781
01:28:50.200                             : en:01:28:50.200
01:32:11.526                             : en:01:32:11.526

回复

使用道具 举报

您需要登录后才可以回帖 登录 | 立即注册

本版积分规则

磁力链接吧  |网站地图

本网站所有资源来自网络,如无意中侵犯了您的权益,请发邮件至 804136696@qq.com,立即清除相关链接

GMT+8, 2019-8-19 13:51 , Processed in 0.081319 second(s), 26 queries .

Powered by Discuz! X3.2

© 2001-2013 Comsenz Inc.

快速回复 返回顶部 返回列表