请选择 进入手机版 | 继续访问电脑版

磁力吧

 找回密码
 立即注册

复仇:爱的故事/复仇:一个爱情故事 Vengeance.A.Love.Story.2017.108...

[复制链接]

磁力吧 发表于 2019-7-10 11:12:13 | 显示全部楼层 |阅读模式



帖子完整标题:复仇:爱的故事/复仇:一个爱情故事 Vengeance.A.Love.Story.2017.1080p.BluRay.x264-ROVERS 6.56GB




◎译  名 复仇:爱的故事 / 复仇:一个爱情故事
◎片  名 Vengeance: A Love Story
◎年  代 2017
◎产  地 美国
◎类  别 动作 / 惊悚
◎语  言 英语
◎上映日期 2017-03-27(英国) / 2017-09-15(美国)
◎IMDb评分  5.2/10 from 5682 users
◎片  长 99分钟
◎导  演 约翰尼·马丁 Johnny Martin
◎编  剧 约翰·曼凯维奇 John Mankiewicz / 乔伊思·卡罗尔·奥特兹 Joyce Carol Oates / 斯科特·温德豪泽 Scott Windhauser
◎主  演 尼古拉斯·凯奇 Nicolas Cage
      安娜·哈彻森 Anna Hutchison
      特丽莎·贝特曼 Talitha Bateman
      黛博拉·卡拉·安格 Deborah Kara Unger
      唐·约翰逊 Don Johnson
      约书亚·米克尔 Joshua Mikel
      罗科·纽金特 Rocco Nugent
      乔·欧科特贝克 Joe Ochterbeck
      卡特·伯奇 Carter Burch
      夏琳·蒂尔顿 Charlene Tilton
      迪克兰·图莱尼 Dikran Tulaine
      卡拉·弗劳尔斯 Kara Flowers
      吉米·冈萨雷斯 Jimmy Gonzales
      科里·斯科特·艾伦 Cory Scott Allen
      迈克·普涅夫斯基 Mike Pniewski
      凯蕾·里维拉 Kaleigh Rivera
      沙维尔·德克里 Xavier Declie
      迈克尔·帕帕约翰 Michael Papajohn


◎标  签 犯罪 | 美国 | 法律 | 2017 | 剧情 | 暴力 | 惊悚 | 强奸

◎简  介  

  缇娜(安娜·哈金森 Anna Hutchison 饰)带着十二岁的女儿贝斯(特丽莎·贝特曼 Talitha Bateman 饰)于午夜走在回家的路上,遇见了一群小混混,小混混们强暴了缇娜,贝斯作为目击证人将施暴者们的面容牢牢记在了心底。在法庭上,贝斯当庭指认了凶手,然而,被告方找来了一位毫无道德底线并且巧舌如簧的律师,他们联手栽赃缇娜,颠倒是非黑白,而法官也只想息事宁人。
约翰(尼古拉斯·凯奇 Nicolas Cage 饰)是一名从业多年的老警官,虽然表面风光,但实际上他正在遭遇人生的中年危机。缇娜的案件激发起了约翰内心里熄灭已久的正义感,他决定挺身而出帮助这对可怜的母女。
Video
ID                                       : 1
Format                                   : AVC
Format/Info                              : Advanced Video Codec
Format settings, CABAC                   : Yes
Format settings, ReFrames                : 4 frames
Codec ID                                 : V_MPEG4/ISO/AVC
Duration                                 : 1h 38mn
Bit rate                                 : 8 881 Kbps
Width                                    : 1 920 pixels
Height                                   : 1 040 pixels
Display aspect ratio                     : 1.85:1
Frame rate mode                          : Constant
Frame rate                               : 23.976 fps
Color space                              : YUV
Chroma subsampling                       : 4:2:0
Bit depth                                : 8 bits
Scan type                                : Progressive
Bits/(Pixel*Frame)                       : 0.186
Stream size                              : 6.12 GiB (93%)
Writing library                          : x264 core 148 r2744 b97ae06
Encoding settings                        : cabac=1 / ref=4 / deblock=1:0:0 / analyse=0x3:0x133 / me=umh / subme=7 / psy=1 / psy_rd=1.00:0.00 / mixed_ref=1 / me_range=16 / chroma_me=1 / trellis=1 / 8x8dct=1 / cqm=0 / deadzone=21,11 / fast_pskip=0 / chroma_qp_offset=-2 / threads=32 / lookahead_threads=5 / sliced_threads=0 / nr=0 / decimate=1 / interlaced=0 / bluray_compat=0 / constrained_intra=0 / bframes=3 / b_pyramid=2 / b_adapt=1 / b_bias=0 / direct=1 / weightb=1 / open_gop=0 / weightp=2 / keyint=250 / keyint_min=23 / scenecut=40 / intra_refresh=0 / rc_lookahead=40 / rc=2pass / mbtree=1 / bitrate=8881 / ratetol=1.0 / qcomp=0.60 / qpmin=0 / qpmax=69 / qpstep=4 / cplxblur=20.0 / qblur=0.5 / ip_ratio=1.40 / aq=1:1.00
Language                                 : English
Default                                  : Yes
Forced                                   : No

Audio
ID                                       : 2
Format                                   : AC-3
Format/Info                              : Audio Coding 3
Mode extension                           : CM (complete main)
Format settings, Endianness              : Big
Codec ID                                 : A_AC3
Duration                                 : 1h 38mn
Bit rate mode                            : Constant
Bit rate                                 : 640 Kbps
Channel(s)                               : 6 channels
Channel positions                        : Front: L C R, Side: L R, LFE
Sampling rate                            : 48.0 KHz
Frame rate                               : 31.250 fps (1536 spf)
Compression mode                         : Lossy
Stream size                              : 451 MiB (7%)
Language                                 : English
Default                                  : Yes
Forced                                   : No

Menu
00:00:00.000                             : en:00:00:00.000
00:12:30.875                             : en:00:12:30.875
00:25:57.389                             : en:00:25:57.389
00:39:47.719                             : en:00:39:47.719
00:55:14.061                             : en:00:55:14.061
01:05:39.894                             : en:01:05:39.894
01:22:32.364                             : en:01:22:32.364
01:34:29.497                             : en:01:34:29.497



                                                                                                                                                                                                        
                                                                                                                                                                                                                                                                                                                                                                                                                                                                                                                                                                                                                                                                                                                                                                                                                                                        
e1580a83f07dc7961bdccbd3802c18ff.torrent (77.27 KB)

回复

使用道具 举报

您需要登录后才可以回帖 登录 | 立即注册

本版积分规则

磁力链接吧  |网站地图

本网站所有资源来自网络,如无意中侵犯了您的权益,请发邮件至 804136696@qq.com,立即清除相关链接

GMT+8, 2019-8-22 21:34 , Processed in 0.104882 second(s), 29 queries .

Powered by Discuz! X3.2

© 2001-2013 Comsenz Inc.

快速回复 返回顶部 返回列表