请选择 进入手机版 | 继续访问电脑版

磁力吧

 找回密码
 立即注册

外星人狙击战 MFKZ.2017.720p.BluRay.x264-USURY 4.39GB

[复制链接]

磁力链接 发表于 2019-7-10 11:02:01 | 显示全部楼层 |阅读模式




帖子完整标题:外星人狙击战 MFKZ.2017.720p.BluRay.x264-USURY 4.39GB




◎译  名 外星人狙击战 / MFKZ / Mutafukaz
◎片  名 ムタフカズ
◎年  代 2017
◎产  地 法国 / 日本
◎类  别 动作 / 科幻 / 动画
◎语  言 法语
◎上映日期 2017-06-13(安锡动画电影节) / 2018-10-12(日本)
◎IMDb评分  6.7/10 from 1548 users
◎片  长 90分钟
◎导  演 西见祥示郎 Shoujirou Nishimi / 吉劳姆·雷纳德 Guillaume Renard
◎编  剧 巴尔吉特·拉伊 Baljeet Rai / 吉劳姆·雷纳德 Guillaume Renard
◎主  演 克里斯·贾伊·阿历克斯 Chris Jai Alex
      安东尼奥·阿尔瓦雷斯 Antonio Alvarez
      迪诺·安德拉德 Dino Andrade
      费奥多尔·阿特金 Féodor Atkine
      迈克尔·切克利斯 Michael Chiklis
      艾朗·多瓦尔 Alain Dorval
      吉安卡罗·埃斯波西托 Giancarlo Esposito
      伊尔琳·菲茨杰拉德 Erin Fitzgerald
      桑迪·福克斯 Sandy Fox
      韦恩·格雷森 Vinnie Penna
      豪尔赫·R·古铁雷斯 Jorge R. Gutierrez


◎标  签 动画 | 法国 | 日本 | 科幻 | 2017 | 奇幻 | 动漫 | 动作

◎简  介  

  故事背景设定在美国,生活在贫民区的Angelino与伙伴Vinz,展开了抵抗外星人的冒险故事。

◎获奖情况  

  第46届动画安妮奖(2019)
  最佳独立动画长片(提名)


Video
ID                                       : 1
Format                                   : AVC
Format/Info                              : Advanced Video Codec
Format settings                          : CABAC / 5 Ref Frames
Format settings, CABAC                   : Yes
Format settings, ReFrames                : 5 frames
Codec ID                                 : V_MPEG4/ISO/AVC
Duration                                 : 1 h 34 min
Bit rate                                 : 3 575 kb/s
Width                                    : 1 280 pixels
Height                                   : 536 pixels
Display aspect ratio                     : 2.40:1
Frame rate mode                          : Constant
Frame rate                               : 23.976 (24000/1001) FPS
Color space                              : YUV
Chroma subsampling                       : 4:2:0
Bit depth                                : 8 bits
Scan type                                : Progressive
Bits/(Pixel*Frame)                       : 0.217
Stream size                              : 2.37 GiB (54%)
Writing library                          : x264 core 157 r2969 d4099dd
Encoding settings                        : cabac=1 / ref=5 / deblock=1:-3:-3 / analyse=0x3:0x133 / me=umh / subme=9 / psy=1 / psy_rd=1.00:0.00 / mixed_ref=1 / me_range=16 / chroma_me=1 / trellis=2 / 8x8dct=1 / cqm=0 / deadzone=21,11 / fast_pskip=0 / chroma_qp_offset=-2 / threads=17 / lookahead_threads=1 / sliced_threads=0 / nr=0 / decimate=1 / interlaced=0 / bluray_compat=0 / constrained_intra=0 / bframes=3 / b_pyramid=2 / b_adapt=1 / b_bias=0 / direct=3 / weightb=1 / open_gop=0 / weightp=2 / keyint=240 / keyint_min=24 / scenecut=40 / intra_refresh=0 / rc_lookahead=50 / rc=2pass / mbtree=1 / bitrate=3575 / ratetol=1.0 / qcomp=0.60 / qpmin=0 / qpmax=69 / qpstep=4 / cplxblur=20.0 / qblur=0.5 / ip_ratio=1.40 / aq=1:1.00
Language                                 : English
Default                                  : Yes
Forced                                   : No

Audio #1
ID                                       : 2
Format                                   : DTS
Format/Info                              : Digital Theater Systems
Codec ID                                 : A_DTS
Duration                                 : 1 h 34 min
Bit rate mode                            : Constant
Bit rate                                 : 1 509 kb/s
Channel(s)                               : 6 channels
Channel layout                           : C L R Ls Rs LFE
Sampling rate                            : 48.0 kHz
Frame rate                               : 93.750 FPS (512 SPF)
Bit depth                                : 24 bits
Compression mode                         : Lossy
Stream size                              : 1.00 GiB (23%)
Language                                 : French
Default                                  : Yes
Forced                                   : No

Audio #2
ID                                       : 3
Format                                   : DTS
Format/Info                              : Digital Theater Systems
Codec ID                                 : A_DTS
Duration                                 : 1 h 34 min
Bit rate mode                            : Constant
Bit rate                                 : 1 509 kb/s
Channel(s)                               : 6 channels
Channel layout                           : C L R Ls Rs LFE
Sampling rate                            : 48.0 kHz
Frame rate                               : 93.750 FPS (512 SPF)
Bit depth                                : 24 bits
Compression mode                         : Lossy
Stream size                              : 1.00 GiB (23%)
Language                                 : English
Default                                  : No
Forced                                   : No

Text #1
ID                                       : 4
Format                                   : UTF-8
Codec ID                                 : S_TEXT/UTF8
Codec ID/Info                            : UTF-8 Plain Text
Duration                                 : 1 h 27 min
Bit rate                                 : 50 b/s
Count of elements                        : 984
Stream size                              : 32.3 KiB (0%)
Title                                    : English
Language                                 : English
Default                                  : Yes
Forced                                   : Yes

Text #2
ID                                       : 5
Format                                   : UTF-8
Codec ID                                 : S_TEXT/UTF8
Codec ID/Info                            : UTF-8 Plain Text
Duration                                 : 1 h 30 min
Bit rate                                 : 64 b/s
Count of elements                        : 1429
Stream size                              : 42.9 KiB (0%)
Title                                    : English dubtitles
Language                                 : English
Default                                  : No
Forced                                   : No

Text #3
ID                                       : 6
Format                                   : UTF-8
Codec ID                                 : S_TEXT/UTF8
Codec ID/Info                            : UTF-8 Plain Text
Duration                                 : 1 h 30 min
Bit rate                                 : 83 b/s
Count of elements                        : 1956
Stream size                              : 55.3 KiB (0%)
Title                                    : English dubtitles SDH
Language                                 : English
Default                                  : No
Forced                                   : No

Menu
00:00:00.000                             : en:00:00:00.000
00:07:37.207                             : en:00:07:37.207
00:14:45.426                             : en:00:14:45.426
00:18:17.471                             : en:00:18:17.471
00:25:04.795                             : en:00:25:04.795
00:29:17.005                             : en:00:29:17.005
00:34:33.989                             : en:00:34:33.989
00:45:22.970                             : en:00:45:22.970
00:49:42.813                             : en:00:49:42.813
00:56:31.346                             : en:00:56:31.346
01:04:34.370                             : en:01:04:34.370
01:09:52.188                             : en:01:09:52.188
01:15:39.326                             : en:01:15:39.326
01:24:30.023                             : en:01:24:30.023
01:28:23.089                             : en:01:28:23.089



                                                                                                                                                                                                        
                                                                                                                                                                                                                                                                                                                                                                                                                                                                                                                                                                                                                                                                                                                                                                                                                                                        
fc5cba423b8984aa9f688eeaba243542.torrent (44.72 KB)

回复

使用道具 举报

您需要登录后才可以回帖 登录 | 立即注册

本版积分规则

磁力链接吧  |网站地图

本网站所有资源来自网络,如无意中侵犯了您的权益,请发邮件至 804136696@qq.com,立即清除相关链接

GMT+8, 2019-8-23 06:13 , Processed in 0.083421 second(s), 29 queries .

Powered by Discuz! X3.2

© 2001-2013 Comsenz Inc.

快速回复 返回顶部 返回列表