请选择 进入手机版 | 继续访问电脑版

磁力吧

 找回密码
 立即注册

一缕芳魂/情天血泪 Sentimental.Journey.1946.1080p.BluRay.x264.DD2.0-FG...

[复制链接]

磁力链接 发表于 2019-7-9 23:10:31 | 显示全部楼层 |阅读模式



帖子完整标题:一缕芳魂/情天血泪 Sentimental.Journey.1946.1080p.BluRay.x264.DD2.0-FGT 7.72GB




◎译  名 一缕芳魂 / 情天血泪
◎片  名 Sentimental Journey
◎年  代 1946
◎产  地 美国
◎类  别 剧情
◎语  言 英语
◎上映日期 1946-03-06
◎IMDb评分  6.8/10 from 312 users
◎片  长 94 分钟
◎导  演 沃尔特·朗 Walter Lang
◎编  剧 伊丽莎白·莱因哈特 Elizabeth Reinhardt / Nelia Gardner White / 萨莫尔·霍芬斯蒂安 Samuel Hoffenstein
◎主  演 约翰·佩恩 John Payne
      玛琳·奥哈拉 Maureen O'Hara
      威廉·本迪克斯 William Bendix
      塞德里克·哈德威克 Cedric Hardwicke
      康妮·马歇尔 Connie Marshall


◎标  签 美国电影

◎简  介  

  女演员朱莉·贝克(玛琳·奥哈拉饰 )发现自己身患绝症且时日无多。于是她收养了一个经常做梦的孤儿希蒂(康妮·马歇尔饰),这样她的丈夫比尔(约翰·佩恩饰)在她死后就不会觉得孤单了。朱莉死后,比尔悲痛万分,他把自己孤立起来,将生活中的每个人,包括希蒂,都拒之于外。而此时,希蒂在梦中遇到了朱莉。希蒂向朱莉求助能让比尔快乐起来的方法,朱莉提供了一些建议,于是希蒂开始努力让比尔振作起来。不幸的是,比尔并不领情;他不相信希蒂见过朱莉,并提出想送她上寄宿学校,避免再见面。希蒂没有离开比尔,而是再次向朱莉请教。终于,在比尔听到了朱莉在她死前录制的唱片之后,他终于意识到,他必须带着希蒂一起把生活继续下去。
Video
ID                                       : 1
Format                                   : AVC
Format/Info                              : Advanced Video Codec
Format settings                          : CABAC / 4 Ref Frames
Format settings, CABAC                   : Yes
Format settings, ReFrames                : 4 frames
Codec ID                                 : V_MPEG4/ISO/AVC
Duration                                 : 1 h 34 min
Bit rate                                 : 11.5 Mb/s
Width                                    : 1 476 pixels
Height                                   : 1 080 pixels
Display aspect ratio                     : 4:3
Frame rate mode                          : Constant
Frame rate                               : 23.976 (24000/1001) FPS
Color space                              : YUV
Chroma subsampling                       : 4:2:0
Bit depth                                : 8 bits
Scan type                                : Progressive
Bits/(Pixel*Frame)                       : 0.301
Stream size                              : 7.59 GiB (98%)
Title                                    : Sentimental.Journey.1946.1080p.BluRay.x264.DD2.0-FGT
Writing library                          : x264 core 148 r2795M aaa9aa8
Encoding settings                        : cabac=1 / ref=4 / deblock=1:-2:-2 / analyse=0x3:0x113 / me=umh / subme=9 / psy=1 / psy_rd=1.00:0.15 / mixed_ref=1 / me_range=16 / chroma_me=1 / trellis=2 / 8x8dct=1 / cqm=0 / deadzone=21,11 / fast_pskip=1 / chroma_qp_offset=-3 / threads=24 / lookahead_threads=3 / sliced_threads=0 / nr=0 / decimate=1 / interlaced=0 / bluray_compat=0 / constrained_intra=0 / bframes=3 / b_pyramid=2 / b_adapt=1 / b_bias=0 / direct=3 / weightb=1 / open_gop=0 / weightp=2 / keyint=250 / keyint_min=25 / scenecut=40 / intra_refresh=0 / rc_lookahead=50 / rc=2pass / mbtree=1 / bitrate=11500 / ratetol=1.0 / qcomp=0.60 / qpmin=0 / qpmax=69 / qpstep=4 / cplxblur=20.0 / qblur=0.5 / vbv_maxrate=31250 / vbv_bufsize=31250 / nal_hrd=none / filler=0 / ip_ratio=1.40 / aq=1:1.00
Language                                 : English
Default                                  : Yes
Forced                                   : No

Audio
ID                                       : 2
Format                                   : AC-3
Format/Info                              : Audio Coding 3
Commercial name                          : Dolby Digital
Codec ID                                 : A_AC3
Duration                                 : 1 h 34 min
Bit rate mode                            : Constant
Bit rate                                 : 192 kb/s
Channel(s)                               : 2 channels
Channel layout                           : L R
Sampling rate                            : 48.0 kHz
Frame rate                               : 31.250 FPS (1536 SPF)
Bit depth                                : 16 bits
Compression mode                         : Lossy
Stream size                              : 130 MiB (2%)
Title                                    : Sentimental.Journey.1946.1080p.BluRay.x264.DD2.0-FGT
Language                                 : English
Service kind                             : Complete Main
Default                                  : Yes
Forced                                   : No

Menu
00:00:00.000                             : en:Chapter 01
00:10:00.600                             : en:Chapter 02
00:20:01.200                             : en:Chapter 03
00:30:01.800                             : en:Chapter 04
00:40:02.400                             : en:Chapter 05
00:50:03.000                             : en:Chapter 06
01:00:03.600                             : en:Chapter 07
01:10:04.200                             : en:Chapter 08
01:20:04.800                             : en:Chapter 09
01:30:05.400                             : en:Chapter 10
01:34:27.912                             : en:Chapter 11



                                                                                                                                                                                                        
                                                                                                                                                                                                                                                                                                                                                                                                                                                                                                                                                                                                                                                                                                                                                                                                                                                        
4b27856f9608d9b09cdbd7162b68eb10.torrent (39.12 KB)

回复

使用道具 举报

您需要登录后才可以回帖 登录 | 立即注册

本版积分规则

磁力链接吧  |网站地图

本网站所有资源来自网络,如无意中侵犯了您的权益,请发邮件至 804136696@qq.com,立即清除相关链接

GMT+8, 2019-8-23 06:07 , Processed in 0.094341 second(s), 29 queries .

Powered by Discuz! X3.2

© 2001-2013 Comsenz Inc.

快速回复 返回顶部 返回列表