请选择 进入手机版 | 继续访问电脑版

磁力吧

 找回密码
 立即注册

良宵春暖/圣诞奇缘 Susan.Slept.Here.1954.1080p.BluRay.x264.DTS-FGT 8.92GB

[复制链接]

磁力吧 发表于 2019-7-9 23:10:31 | 显示全部楼层 |阅读模式



帖子完整标题:良宵春暖/圣诞奇缘 Susan.Slept.Here.1954.1080p.BluRay.x264.DTS-FGT 8.92GB




◎译  名 良宵春暖 / 圣诞奇缘
◎片  名 Susan Slept Here
◎年  代 1954
◎产  地 美国
◎类  别 剧情 / 喜剧 / 音乐
◎语  言 英语
◎上映日期 1954-07-29
◎IMDb评分  6.5/10 from 1354 users
◎片  长 98 分钟
◎导  演 Frank Tashlin
◎编  剧 Alex Gottlieb / 史蒂夫 费希尔 (Steve Fisher (I))
◎主  演 迪克·鲍威尔 Dick Powell
      黛比·雷诺斯 Debbie Reynolds
      安妮·弗朗西丝 Anne Francis


◎标  签 黑色电影 | 美国电影 | 电影史 | FrankTashlin | 奥斯卡最佳录音 | 奥斯卡最佳原创歌曲 | Frank_Tashlin

◎简  介  

  What's the only feature film in Hollywood history ever to be narrated by an Academy Award? You guessed it - Susan Slept Here. After introducing itself, the handsome statuette invites us into the apartment of its owner, screenwriter Mark Christopher (Dick Powell). Knowing that Powell is working on a script about juvenile delinquency, a couple of policemen on the night beat deposit teenaged troublemaker Susan Landis (Debbie) on Powell's doorstep - just as he's about to go out on the town. Somewhat terrified by Debbie's erratic behavior after having tried an escape from the two cops, Powell vows to keep their relationship platonic as the kid spends Christmas week in his bachelor pad, but his beautiful fiancée Anne Francis comes to suspect the worst.
It soon becomes apparent that Susan is more fun than the stuffy fiancée and its easy to see why Dick Powell falls in love. Though their age difference initially poses a problem - Susan at 17, Mark at 35 - they fall happily in love - after a bevy of misunderstandings and bumps along the way.
Susan Slept Here was Dick Powell's last starring feature film after more than two decades of stardom - he continued his career behind the scenes from this film on. During production, Powell at age 50 was a full 28 years older than his leading lady Reynolds, who clocked in at 22 - the same age as 'the older woman' - Anne Francis. Though the age gap is glaringly obvious and somewhat troublesome, the charm and talent of these great stars shines through and makes Susan a thoroughly enjoyable experience.

◎获奖情况  

  第27届奥斯卡金像奖(1955)
  最佳录音(提名) 约翰·奥尔堡
  最佳原创歌曲(提名) Jack Lawrence / Richard Myers


Video
ID                                       : 1
Format                                   : AVC
Format/Info                              : Advanced Video Codec
Format settings                          : CABAC / 4 Ref Frames
Format settings, CABAC                   : Yes
Format settings, ReFrames                : 4 frames
Codec ID                                 : V_MPEG4/ISO/AVC
Duration                                 : 1 h 38 min
Bit rate                                 : 11.5 Mb/s
Width                                    : 1 792 pixels
Height                                   : 1 080 pixels
Display aspect ratio                     : 5:3
Frame rate mode                          : Constant
Frame rate                               : 23.976 (24000/1001) FPS
Color space                              : YUV
Chroma subsampling                       : 4:2:0
Bit depth                                : 8 bits
Scan type                                : Progressive
Bits/(Pixel*Frame)                       : 0.248
Stream size                              : 7.88 GiB (88%)
Title                                    : Susan.Slept.Here.1954.1080p.BluRay.x264.DTS-FGT
Writing library                          : x264 core 148 r2795M aaa9aa8
Encoding settings                        : cabac=1 / ref=4 / deblock=1:-2:-2 / analyse=0x3:0x113 / me=umh / subme=9 / psy=1 / psy_rd=1.00:0.15 / mixed_ref=1 / me_range=16 / chroma_me=1 / trellis=2 / 8x8dct=1 / cqm=0 / deadzone=21,11 / fast_pskip=1 / chroma_qp_offset=-3 / threads=24 / lookahead_threads=3 / sliced_threads=0 / nr=0 / decimate=1 / interlaced=0 / bluray_compat=0 / constrained_intra=0 / bframes=3 / b_pyramid=2 / b_adapt=1 / b_bias=0 / direct=3 / weightb=1 / open_gop=0 / weightp=2 / keyint=250 / keyint_min=25 / scenecut=40 / intra_refresh=0 / rc_lookahead=50 / rc=2pass / mbtree=1 / bitrate=11500 / ratetol=1.0 / qcomp=0.60 / qpmin=0 / qpmax=69 / qpstep=4 / cplxblur=20.0 / qblur=0.5 / vbv_maxrate=31250 / vbv_bufsize=31250 / nal_hrd=none / filler=0 / ip_ratio=1.40 / aq=1:1.00
Language                                 : English
Default                                  : Yes
Forced                                   : No

Audio
ID                                       : 2
Format                                   : DTS
Format/Info                              : Digital Theater Systems
Codec ID                                 : A_DTS
Duration                                 : 1 h 38 min
Bit rate mode                            : Constant
Bit rate                                 : 1 509 kb/s
Channel(s)                               : 2 channels
Channel layout                           : L R
Sampling rate                            : 48.0 kHz
Frame rate                               : 93.750 FPS (512 SPF)
Bit depth                                : 24 bits
Compression mode                         : Lossy
Stream size                              : 1.03 GiB (12%)
Title                                    : Susan.Slept.Here.1954.1080p.BluRay.x264.DTS-FGT
Language                                 : English
Default                                  : Yes
Forced                                   : No

Text
ID                                       : 3
Format                                   : UTF-8
Codec ID                                 : S_TEXT/UTF8
Codec ID/Info                            : UTF-8 Plain Text
Duration                                 : 1 h 37 min
Bit rate                                 : 69 b/s
Count of elements                        : 1653
Stream size                              : 50.0 KiB (0%)
Language                                 : English
Default                                  : Yes
Forced                                   : No



                                                                                                                                                                                                        
                                                                                                                                                                                                                                                                                                                                                                                                                                                                                                                                                                                                                                                                                                                                                                                                                                                        
724c1391a946185c6f2cf6422758e3c1.torrent (45.1 KB)

回复

使用道具 举报

您需要登录后才可以回帖 登录 | 立即注册

本版积分规则

磁力链接吧  |网站地图

本网站所有资源来自网络,如无意中侵犯了您的权益,请发邮件至 804136696@qq.com,立即清除相关链接

GMT+8, 2019-8-22 22:09 , Processed in 0.109003 second(s), 29 queries .

Powered by Discuz! X3.2

© 2001-2013 Comsenz Inc.

快速回复 返回顶部 返回列表