请选择 进入手机版 | 继续访问电脑版

磁力吧

 找回密码
 立即注册

金鹅档案/神探急先锋 The.File.Of.The.Golden.Goose.1969.1080p.BluRay.x...

[复制链接]

磁力吧 发表于 2019-7-9 23:10:31 | 显示全部楼层 |阅读模式




帖子完整标题:金鹅档案/神探急先锋 The.File.Of.The.Golden.Goose.1969.1080p.BluRay.x264-HANDJOB 8.37GB




◎译  名 金鹅档案 / 神探急先锋
◎片  名 The File of the Golden Goose
◎年  代 1969
◎产  地 英国
◎类  别 剧情 / 惊悚 / 犯罪
◎语  言 英语
◎上映日期 1969-10-02
◎IMDb评分  5.5/10 from 381 users
◎片  长 109 分钟
◎导  演 萨姆·沃纳梅克 Sam Wanamaker
◎编  剧 James B. Gordon / 约翰·C. 希金斯 John C. Higgins / Robert E. Kent
◎主  演 Yul Brynner


◎标  签 YulBrynner | 英国 | 犯罪 | 尤·伯连纳 | 动作 | 6.3 | 1969 | **

◎简  介  

  暂无相关剧情介绍
Video
ID                                       : 2
Format                                   : AVC
Format/Info                              : Advanced Video Codec
Format settings                          : CABAC / 4 Ref Frames
Format settings, CABAC                   : Yes
Format settings, ReFrames                : 4 frames
Codec ID                                 : V_MPEG4/ISO/AVC
Duration                                 : 1 h 46 min
Bit rate                                 : 11.1 Mb/s
Width                                    : 1 788 pixels
Height                                   : 1 080 pixels
Display aspect ratio                     : 5:3
Frame rate mode                          : Constant
Frame rate                               : 23.976 (24000/1001) FPS
Color space                              : YUV
Chroma subsampling                       : 4:2:0
Bit depth                                : 8 bits
Scan type                                : Progressive
Bits/(Pixel*Frame)                       : 0.239
Stream size                              : 8.23 GiB (98%)
Writing library                          : x264 core 157 r2935 545de2f
Encoding settings                        : cabac=1 / ref=4 / deblock=1:-3:-3 / analyse=0x3:0x133 / me=umh / subme=10 / psy=1 / psy_rd=1.00:0.00 / mixed_ref=1 / me_range=32 / chroma_me=1 / trellis=2 / 8x8dct=1 / cqm=0 / deadzone=21,11 / fast_pskip=0 / chroma_qp_offset=-2 / threads=18 / lookahead_threads=4 / sliced_threads=0 / nr=0 / decimate=0 / interlaced=0 / bluray_compat=0 / constrained_intra=0 / bframes=16 / b_pyramid=2 / b_adapt=2 / b_bias=0 / direct=3 / weightb=1 / open_gop=0 / weightp=2 / keyint=240 / keyint_min=24 / scenecut=40 / intra_refresh=0 / rc_lookahead=60 / rc=crf / mbtree=0 / crf=21.8 / qcomp=0.60 / qpmin=0 / qpmax=69 / qpstep=4 / vbv_maxrate=62500 / vbv_bufsize=78125 / crf_max=0.0 / nal_hrd=none / filler=0 / ip_ratio=1.40 / pb_ratio=1.30 / aq=2:1.00
Default                                  : Yes
Forced                                   : No
Color range                              : Limited
Color primaries                          : BT.709
Transfer characteristics                 : BT.709
Matrix coefficients                      : BT.709

Audio
ID                                       : 1
Format                                   : FLAC
Format/Info                              : Free Lossless Audio Codec
Codec ID                                 : A_FLAC
Duration                                 : 1 h 46 min
Bit rate mode                            : Variable
Bit rate                                 : 187 kb/s
Channel(s)                               : 2 channels
Channel layout                           : L R
Sampling rate                            : 48.0 kHz
Frame rate                               : 11.719 FPS (4096 SPF)
Bit depth                                : 16 bits
Compression mode                         : Lossless
Stream size                              : 142 MiB (2%)
Writing library                          : libFLAC 1.2.1 (UTC 2007-09-17)
Language                                 : English
Default                                  : Yes
Forced                                   : No

Menu
00:00:00.000                             : :Chapter 1
00:10:45.103                             : :Chapter 2
00:25:20.519                             : :Chapter 3
00:41:24.273                             : :Chapter 4
00:51:24.415                             : :Chapter 5
01:06:26.065                             : :Chapter 6
01:19:11.622                             : :Chapter 7
01:33:16.925                             : :Chapter 8



                                                                                                                                                                                                        
                                                                                                                                                                                                                                                                                                                                                                                                                                                                                                                                                                                                                                                                                                                                                                                                                                                        
a895daa8c659d7126b5994c77c8a4599.torrent (42.4 KB)

回复

使用道具 举报

您需要登录后才可以回帖 登录 | 立即注册

本版积分规则

磁力链接吧  |网站地图

本网站所有资源来自网络,如无意中侵犯了您的权益,请发邮件至 804136696@qq.com,立即清除相关链接

GMT+8, 2019-8-23 06:09 , Processed in 0.085958 second(s), 29 queries .

Powered by Discuz! X3.2

© 2001-2013 Comsenz Inc.

快速回复 返回顶部 返回列表